Любовь и война / L\'amore e la guerra (Джакомо Кампиотти / Giacomo Campiotti) [2007, Италия, драма, военный, TVRip] VO (PashaUp) + Original Ita

 
Автор Сообщение

TorrentFilm ®

Пол:

Стаж: 2 года

Сообщений: 7741



Награды: Нет

Торрент-статистика

Создавать темы 11-Янв-2015 00:01

[Цитировать]


Любовь и война / L'amore e la guerra
Страна: Италия
Жанр: драма, военный
Год выпуска: 2007
Продолжительность: 03:19:05
Перевод: Одноголосый закадровый PashaUp
Перевод с итальянского: Олеся Варнавиду
Cубтитры: нет
Оригинальная аудиодорожка: итальянский
Альтернативная раздача с итальянскими субтитрами без озвучки: Любовь и война / L'amore e la guerra (Джакомо Кампиотти / Giacomo Campiotti) [2007, Италия, драма, военный, TVRip] (Олеся Варнавиду) + Sub Rus + Original Ita
Режиссер: Джакомо Кампиотти / Giacomo Campiotti
В ролях: Мартина Стелла (Последний поцелуй), Даниэле Лиотти (Дело Назаретянина, Дон Корлеоне), Федерика Берн, Дэнис Фасоло, Людовико Фремон, Марко Гамбино, Эмануэла Гримальда, Мауро Мекони, Хелен Нардини, Чиара Паццаглиа
Описание: В основе сюжета - вольная интерпретация романа "Прощай, оружие" Э.Хэмингуэя и мемуаров Р.Киплинга "Война в горах". Турин, 1917, Первая Мировая Война. Молодая графиня Альбертина Реджис отправляется на фронт добровольцем Красного Креста, но военный госпиталь оказывается не таким уж и романтичным местом для выражения своего патриотизма. В это время сержанту Рокко Парри приходится проявлять всё своё мужество и отвагу не только в сражениях с противником на поле боя, но и в противостоянии капитану армии Алессандро Авогадро, который видит в сержанте угрозу своей военной карьере, а также соперника в борьбе за руку и сердце графини Реджис.
Доп. информация: "Любовь и Война" - один из тех случаев, когда за незамысловатым названием кроется глубокий фильм о самом важном: о любви к Родине, о любви к женщине и о настоящей мужской дружбе, - о понятиях, имеющих ещё большую значимость в военное время. Динамичный сюжет держит в напряжении до последней минуты, и если добавить, что фильм был снят талантливейшим режиссёром Джакомо Кампиотти, известным в России по своей шедевральной работе "Джузеппе Москати - исцеляющая любовь", то отпадают всякие сомнения, что и на этот раз нас ждёт ещё одно добротное кино в лучших традициях итальянского кинематографа.
Джакомо Кампиотти: "Я начал читать сценарий фильма "Любовь и Война" с некоторым недоверием. После удачных съёмок "Доктора Живаго" я думал, что еще один фильм о любви и войне, уже, пожалуй, не для меня. Но... эта история оказалась невероятно похожей на реальную историю любви моих бабушки и дедушки по материнской линии! Моя бабушка, дочь генерала Дельи Альпини, во время Первой мировой войны была молодой медсестрой- добровольцем на фронте, где и познакомилась с солдатом, находящимся на службе у её отца. Крепко полюбив друг друга, им пришлось защищать свою любовь вопреки классовому и социальному неравенству того времени.
Когда я прочёл в сценарии, что местом первого знакомства героев является Кормонс - то самое место, где познакомились мои настоящие бабушка и дедушка, - у меня отпали всякие сомнения: этот фильм должен снять именно я! Так что, как обычно, я с головой бросился в подготовку к фильму и к самим съёмкам..."
Сэмпл: http://multi-up.com/1025718
Качество видео: TVRip
Формат видео: AVI
Видео, серия 1: XviD, 951 Кбит/сек, 576x320, 25,000 кадров/сек
Видео, серия 2: XviD, 951 Кбит/сек, 576x312, 25,000 кадров/сек
Аудио: MPEG-1 Audio layer 3, 128 Кбит/сек, 2 канала, 44,1 КГц

MediaInfo

Общее
Полное имя : C:\РАЗДАЧИ\L'Amore e la Guerra.2007\L'Amore e la Guerra - (1-часть).avi
Формат : AVI
Формат/Информация : Audio Video Interleave
Размер файла : 762 Мбайт
Продолжительность : 1 ч. 37 м.
Общий поток : 1088 Кбит/сек
Программа кодирования : VirtualDubMod 1.5.10.2 (build 2540/release)
Библиотека кодирования : VirtualDubMod build 2540/release
Видео
Идентификатор : 0
Формат : MPEG-4 Visual
Профиль формата : Advanced Simple@L5
Параметр BVOP формата : 1
Параметр QPel формата : Да
Параметр GMC формата : Без точки перехода
Параметр матрицы формата : Default (H.263)
Режим смешивания : Сжатый битовый поток
Идентификатор кодека : XVID
Идентификатор кодека/Подсказка : XviD
Продолжительность : 1 ч. 37 м.
Битрейт : 951 Кбит/сек
Ширина : 576 пикселей
Высота : 320 пикселей
Соотношение сторон : 4:3
Соотношение сторон в оригинале : 16:9
Частота кадров : 25,000 кадров/сек
Цветовое пространство : YUV
Субдискретизация насыщенности : 4:2:0
Битовая глубина : 8 бит
Тип развёртки : Прогрессивная
Метод сжатия : С потерями
Бит/(Пиксели*Кадры) : 0.206
Размер потока : 665 Мбайт (87%)
Библиотека кодирования : XviD 1.2.1 (UTC 2008-12-04)
Аудио
Идентификатор : 1
Формат : MPEG Audio
Версия формата : Version 1
Профиль формата : Layer 3
Режим : Joint stereo
Расширение режима : MS Stereo
Идентификатор кодека : 55
Идентификатор кодека/Подсказка : MP3
Продолжительность : 1 ч. 37 м.
Вид битрейта : Постоянный
Битрейт : 128 Кбит/сек
Каналы : 2 канала
Частота : 44,1 КГц
Метод сжатия : С потерями
Размер потока : 89,4 Мбайт (12%)
Выравнивание : Соединение по промежуткам
Продолжительность промежутка : 40 мс. (1,00 видеокадр)
Время предзагрузки промежутка : 522 мс.
Общее
Полное имя : C:\РАЗДАЧИ\L'Amore e la Guerra.2007\L'Amore e la Guerra - (2-часть).avi
Формат : AVI
Формат/Информация : Audio Video Interleave
Размер файла : 837 Мбайт
Продолжительность : 1 ч. 41 м.
Общий поток : 1155 Кбит/сек
Программа кодирования : VirtualDubMod 1.5.10.2 (build 2540/release)
Библиотека кодирования : VirtualDubMod build 2540/release
Видео
Идентификатор : 0
Формат : MPEG-4 Visual
Профиль формата : Advanced Simple@L5
Параметр BVOP формата : 1
Параметр QPel формата : Да
Параметр GMC формата : Без точки перехода
Параметр матрицы формата : Default (H.263)
Режим смешивания : Сжатый битовый поток
Идентификатор кодека : XVID
Идентификатор кодека/Подсказка : XviD
Продолжительность : 1 ч. 41 м.
Битрейт : 1018 Кбит/сек
Ширина : 576 пикселей
Высота : 312 пикселей
Соотношение сторон : 4:3
Соотношение сторон в оригинале : 16:9
Частота кадров : 25,000 кадров/сек
Цветовое пространство : YUV
Субдискретизация насыщенности : 4:2:0
Битовая глубина : 8 бит
Тип развёртки : Прогрессивная
Метод сжатия : С потерями
Бит/(Пиксели*Кадры) : 0.227
Размер потока : 737 Мбайт (88%)
Библиотека кодирования : XviD 1.2.1 (UTC 2008-12-04)
Аудио
Идентификатор : 1
Формат : MPEG Audio
Версия формата : Version 1
Профиль формата : Layer 3
Режим : Joint stereo
Расширение режима : MS Stereo
Идентификатор кодека : 55
Идентификатор кодека/Подсказка : MP3
Продолжительность : 1 ч. 41 м.
Вид битрейта : Постоянный
Битрейт : 128 Кбит/сек
Каналы : 2 канала
Частота : 44,1 КГц
Метод сжатия : С потерями
Размер потока : 92,5 Мбайт (11%)
Выравнивание : Соединение по промежуткам
Продолжительность промежутка : 40 мс. (1,00 видеокадр)
Время предзагрузки промежутка : 522 мс.

Скриншот c названием фильма

[Профиль] [ЛС]

Создавать темы 06-Авг-2015 22:48 (спустя 6 месяцев 26 дней)

Топик был перенесен из форума Фильмы до 2014 года в форум Фильмы до 2012 года
sergej644
 
Показать сообщения:    

Текущее время: Сегодня 22:31

Часовой пояс: GMT



Вы не можете начинать темы
Вы не можете отвечать на сообщения
Вы не можете редактировать свои сообщения
Вы не можете удалять свои сообщения
Вы не можете голосовать в опросах
Вы не можете прикреплять файлы к сообщениям
Вы не можете скачивать файлы