Любовь и война в Лемурландии / Love and War in Lemur Land (Этьен Верхаген / Etienne Verhaegen) [1997 г., Документальный, TVRip]

 
Автор Сообщение

reversefile ®

Пол:

Стаж: 4 года 5 месяцев

Сообщений: 842

Откуда: ReverseFile.org



Награды: Нет

Торрент-статистика

Создавать темы 11-Авг-2014 06:20

[Цитировать]

Любовь и война в Лемурландии / Love and War in Lemur Land- Год выпуска: 1997
Страна: Франция
Жанр: Документальный
Продолжительность: 00:25:39
Перевод: Профессиональный (одноголосый)
Доп. инфо о переводе: СВ-Дубль по заказу ВГТРК "Культура"
Русские субтитры: нет
Оригинальная аудиодорожка: нет
Режиссер: Этьен Верхаген / Etienne Verhaegen
Телеканал: ВГТРК "Культура"

-
Описание: Лемуры - самые известные из мадагаскарских приматов. Среди них различают кошачьего лемура, сифака, черного, рыжего и изящного лемуров. И хотя многое в их поведении напоминает обезьян, у каждого вида - свой собственный образ жизни. В этом фильме рассказ пойдет о двух семьях, обитающих в этих таинственных лесах..
-
Смотрите также:
-
Сэмпл: http://yadi.sk/d/JMLrYhAGRkGaZ
Качество: TVRip
Формат: AVI
Видео кодек: DivX
Аудио кодек: MP3
Видео: 704 x 528, 25.000 fps, 1858 Kbps, b/p 0.200
Аудио: 2 ch., 128 kbps, 48 KHz
Media Info">

Скриншоты Media Info


GeneralComplete name : G:\Love and War in Lemur Land.aviFormat : AVIFormat/Info : Audio Video InterleaveFile size : 366 MiBDuration : 25mn 38sOverall bit rate : 1 996 KbpsWriting application : VirtualDubMod 1.5.10.1 (build 2439/release)Writing library : VirtualDubMod build 2439/release
VideoID : 0Format : MPEG-4 VisualFormat profile : Advanced Simple@L5Format settings, BVOP : YesFormat settings, QPel : NoFormat settings, GMC : No warppointsFormat settings, Matrix : Default (H.263)Codec ID : DX50Codec ID/Hint : DivX 5Duration : 25mn 38sBit rate : 1 858 KbpsWidth : 704 pixelsHeight : 528 pixelsDisplay aspect ratio : 4:3Frame rate : 25.000 fpsColor space : YUVChroma subsampling : 4:2:0Bit depth : 8 bitsScan type : ProgressiveCompression mode : LossyBits/(Pixel*Frame) : 0.200Stream size : 341 MiB (93%)Writing library : XviD 1.2.0.dev47 (UTC 2006-11-01)
AudioID : 1Format : MPEG AudioFormat version : Version 1Format profile : Layer 3Mode : Joint stereoMode extension : MS StereoCodec ID : 55Codec ID/Hint : MP3Duration : 25mn 38sBit rate mode : ConstantBit rate : 128 KbpsChannel count : 2 channelsSampling rate : 48.0 KHzCompression mode : LossyStream size : 23.5 MiB (6%)Alignment : Aligned on interleavesInterleave, duration : 40 ms (1.00 video frame)Interleave, preload duration : 504 ms
[Профиль] [ЛС]
Показать сообщения:    

Текущее время: Сегодня 07:13

Часовой пояс: GMT



Вы не можете начинать темы
Вы не можете отвечать на сообщения
Вы не можете редактировать свои сообщения
Вы не можете удалять свои сообщения
Вы не можете голосовать в опросах
Вы не можете прикреплять файлы к сообщениям
Вы не можете скачивать файлы