Любовь или секс / The Bounceback (2013) BDRip 1080p | P

 
Автор Сообщение

BOSS ®

Пол:

Стаж: 2 года 2 месяца

Сообщений: 3751

Откуда: ODESSA



Награды: 20 (Подробнее)

Top Seeder 4 (Количество: 1) Top Keeper 4 (Количество: 1) Mega Seeder 1 (Количество: 1)
Торрент-статистика

Создавать темы 05-Дек-2015 09:48

[Цитировать]

Название: Любовь или секс
Оригинальное название: The Bounceback
Год выпуска: 2013
Жанр: Мелодрама, комедия
Выпущено: США, Anaphrodisiac, Preferred Content
Режиссер: Брайан Пойсер
В ролях: Эшли Белл, Зак Креггер, Сара Пэкстон, Майкл Сталь-Дэвид, Эддисон Тимлин, Маршалл Оллман, Джастин Арнольд, Дебора Эбботт, Саманта Баньон, Гопал Бидари
О фильме: Когда отчаявшийся Стэн летит в Остин на выходные в надежде «случайно» встретить свою бывшую девушку Кэти. Приехав, он узнает, что его лучшие друзья, Джефф и Кара, находятся на грани расставания. Но все еще можно исправить...

Качество: ВDRip 1080р
Видео: MPEG-4, 7013 Кбит/с, 1920x1080
Аудио: Русский (AС3, 2 ch, 192 Кбит/с), английский, немецкий (DTS, 6 ch, 1510 Кбит/с)
Продолжительность: 01:30:50
Озвучивание: Профессиональное (многоголосое) [Официальный звук]
Субтитры: Немецкие
Семпл

Скриншоты

MediaInfo

General
Unique ID : 198527775201324268015165356153728252593 (0x955B0F074F2D2F659C8BD2E73EC1BAB1)
Complete name : D:ВидеоLub0vj.i.s3ks.2013.P.BDRip.1080p.mkv
Format : Matroska
Format version : Version 4 / Version 2
File size : 5.64 GiB
Duration : 1h 30mn
Overall bit rate : 8 918 Kbps
Encoded date : UTC 2015-12-04 12:15:46
Writing application : mkvmerge v8.2.0 ('World of Adventure') 64bit
Writing library : libebml v1.3.1 + libmatroska v1.4.2
DURATION : 01:30:33.472000000
NUMBER_OF_FRAMES : 169796
NUMBER_OF_BYTES : 130403328
_STATISTICS_WRITING_APP : mkvmerge v8.2.0 ('World of Adventure') 64bit
_STATISTICS_WRITING_DATE_UTC : 2015-12-04 12:15:46
_STATISTICS_TAGS : BPS DURATION NUMBER_OF_FRAMES NUMBER_OF_BYTES
Video
ID : 1
Format : AVC
Format/Info : Advanced Video Codec
Format profile : High@L4.1
Format settings, CABAC : Yes
Format settings, ReFrames : 4 frames
Codec ID : V_MPEG4/ISO/AVC
Duration : 1h 30mn
Bit rate : 7 013 Kbps
Width : 1 920 pixels
Height : 1 080 pixels
Display aspect ratio : 16:9
Frame rate mode : Constant
Frame rate : 23.976 fps
Color space : YUV
Chroma subsampling : 4:2:0
Bit depth : 8 bits
Scan type : Progressive
Bits/(Pixel*Frame) : 0.141
Stream size : 4.44 GiB (79%)
Writing library : x264 core 148 r2638 7599210
Encoding settings : cabac=1 / ref=4 / deblock=1:-1:-1 / analyse=0x3:0x133 / me=umh / subme=7 / psy=1 / psy_rd=1.00:0.15 / mixed_ref=1 / me_range=16 / chroma_me=1 / trellis=1 / 8x8dct=1 / cqm=0 / deadzone=21,11 / fast_pskip=0 / chroma_qp_offset=-3 / threads=8 / lookahead_threads=1 / sliced_threads=0 / nr=0 / decimate=1 / interlaced=0 / bluray_compat=0 / constrained_intra=0 / bframes=3 / b_pyramid=2 / b_adapt=1 / b_bias=0 / direct=1 / weightb=1 / open_gop=0 / weightp=2 / keyint=250 / keyint_min=23 / scenecut=40 / intra_refresh=0 / rc_lookahead=40 / rc=crf / mbtree=1 / crf=20.0 / qcomp=0.60 / qpmin=0 / qpmax=69 / qpstep=4 / ip_ratio=1.40 / aq=1:1.00
Default : Yes
Forced : No
Audio #1
ID : 2
Format : AC-3
Format/Info : Audio Coding 3
Mode extension : CM (complete main)
Format settings, Endianness : Big
Codec ID : A_AC3
Duration : 1h 30mn
Bit rate mode : Constant
Bit rate : 192 Kbps
Channel(s) : 2 channels
Channel positions : Front: L R
Sampling rate : 48.0 KHz
Bit depth : 16 bits
Compression mode : Lossy
Stream size : 124 MiB (2%)
Language : Russian
Default : Yes
Forced : Yes
Audio #2
ID : 3
Format : DTS
Format/Info : Digital Theater Systems
Mode : 16
Format settings, Endianness : Big
Codec ID : A_DTS
Duration : 1h 30mn
Bit rate mode : Constant
Bit rate : 768 Kbps
Channel(s) : 6 channels
Channel positions : Front: L C R, Side: L R, LFE
Sampling rate : 48.0 KHz
Bit depth : 16 bits
Compression mode : Lossy
Stream size : 497 MiB (9%)
Language : English
Default : No
Forced : No
Audio #3
ID : 4
Format : DTS
Format/Info : Digital Theater Systems
Mode : 16
Format settings, Endianness : Big
Codec ID : A_DTS
Duration : 1h 30mn
Bit rate mode : Constant
Bit rate : 768 Kbps
Channel(s) : 6 channels
Channel positions : Front: L C R, Side: L R, LFE
Sampling rate : 48.0 KHz
Bit depth : 16 bits
Compression mode : Lossy
Stream size : 497 MiB (9%)
Language : German
Default : No
Forced : No
Text
ID : 5
Format : UTF-8
Codec ID : S_TEXT/UTF8
Codec ID/Info : UTF-8 Plain Text
Language : German
Default : Yes
Forced : Yes
Menu
00:00:00.000 : en:00:00:00.000
00:04:57.297 : en:00:04:57.297
00:12:04.724 : en:00:12:04.724
00:20:42.241 : en:00:20:42.241
00:28:11.690 : en:00:28:11.690
00:38:19.297 : en:00:38:19.297
00:47:04.822 : en:00:47:04.822
00:55:40.337 : en:00:55:40.337
01:02:57.774 : en:01:02:57.774
01:11:22.278 : en:01:11:22.278
01:19:03.739 : en:01:19:03.739
01:27:27.242 : en:01:27:27.242
[Профиль] [ЛС]
Показать сообщения:    

Текущее время: Сегодня 18:51

Часовой пояс: GMT



Вы не можете начинать темы
Вы не можете отвечать на сообщения
Вы не можете редактировать свои сообщения
Вы не можете удалять свои сообщения
Вы не можете голосовать в опросах
Вы не можете прикреплять файлы к сообщениям
Вы не можете скачивать файлы