Любовь в 3Д / Love 3D (Гаспар Ноэ / Gaspar Noé) [2015, Арт-хаус, Драма, Эротика, BDrip-AVC] MVO (IPTV), Half OverUnder / Вертикальная анаморфная стереопара

 
Автор Сообщение

TorrentFilm ®

Пол:

Стаж: 2 года 10 месяцев

Сообщений: 7763



Награды: Нет

Торрент-статистика

Создавать темы 26-Дек-2015 00:14

[Цитировать]

Любовь
Love
- Год выпуска: 2015
Страна: Франция, Бельгия (Les Cinémas de la Zone, Rectangle Productions, Wild Bunch, RT Features)
Жанр: Арт-хаус, Драма, Эротика
Продолжительность: 02:15:15
Перевод: Многоголосый закадровый (официальный) - IPTV
Режиссер: Гаспар Ноэ / Gaspar Noé
-
Роли исполняли:
_______|_______ _______ _______
Карл Глусман (Murphy), Аоми Муйок (Electra), Клара Кристин (Omi), Ugo Fox (Gaspar), Хуан Сааведра (Julio), Гаспар Ноэ (Noe), Isabelle Nicou (Nora), Бенуа Деби (Yuyo), Венсан Мараваль (Castel), Дебора Реви (Paula), Xamira Zuloaga (Lucile), Стелла Роча (Mami), Omaima S. (Victoire)

-
Описание: Любовь вне добра и зла. Любовь — это генетическая потребность. Это дар и проклятие. Любовь — это болезнь, наркотик. Это потеря и обретение себя. Любовь — это самое прекрасное и самое ужасное в нашей жизни. Любовь — это переплетение душ и соединение тел. «Любовь» — это возбуждающая сексуальная мелодрама о парне, девушке и еще одной девушке.
-
Внимание! Возрастное ограничение 18 лет!!!
Также не рекомендую к просмотру зрителям пуританских нравов!
-
Доп. инфо: Ожидалось, что компания Premium Film выпустит «Любовь» в российский прокат 3 сентября. Представитель компании заявила, что для проката будут использованы «софт-материалы» (кадры, в которых прямо демонстрируются половые органы и половой акт, будут вырезаны или заретушированы). Кроме того, фильм должен был быть выпущен с возрастным ограничением 18+ и появиться только на ночных киносеансах. Однако, 17 сентября 2015г Министерство культуры России запретило прокат фильма из-за «многочисленных сцен порнографического характера».

Интересно:

  • После первого показа фильма в рамках Каннского кинофестиваля этого года, журналисты и специалисты индустрии назвали фильм скандальным и откровенным.
  • Кинокритики, посмотревшие фильм на Каннском фестивале, были поражены количеством откровенных сцен. Как ранее сообщало издание Variety, в фильме в большом количестве присутствуют сцены сексуального характера, снятые, благодаря 3D, невероятно реалистично.
  • Согласно опубликованным рецензиям, «Любовь» Гаспара Ноэ получилась куда более откровенной, нежели «Нимфоманка» Ларса фон Триера и «Пятьдесят оттенков серого».

Одна рецензия с КиноПоиска

Eraser_Darko написал:
Порно в 3D без СМС и регистрации!
В ОМКФ была одна очень громкая премьера. Настолько громкая, что в итоге решили запустить дополнительный показ, поскольку желающих посмотреть порно набралось немало. Это была премьера фильма «Love». Показательный представитель арт-хаус кухни. Столь малые показы, столь субъективное видение, уходящие зрители, откровенные сцены, разбросанные автографы (новой жизни он дал имя Гаспар, а раздору — Ноэ) и прочее. Все это заставляло чувствовать некую ответственность за своё собственное итоговое мнение о фильме. Свою оценку происходящему на экране.
Ноэ создал картину, в которой полностью высказался о том, что для него лично означает слово «любовь». Он все объяснил, и наделил картину той универсальностью, благодаря которой даже не знакомый с автором зритель, верно прочтет посыл. Быть может, ему даже понравится. Зритель расширит свои горизонты, взглянет иначе на некоторые аспекты жизни. Как минимум — он увидит прекрасные, чувственные, акты любви.
Что еще увидит зритель? Наверное, суть, в которой, любовь — это не только лишь страстный секс, но и другие радости вроде обсуждения имени будущего ребенка, совместного просмотра фильмов, чтения книг у окна и визуальным наслаждением друг друга. Безусловно, может показаться, что это все декорации. Как и сама разворачивающаяся на экране драма, размышления, наркотики, Париж, деятели искусства, и все остальные люди. Ради одной лишь цели — посмотреть порно в 3D без СМС и регистрации. 3D впечатлило в запускаемых кольцах дыма, пугало в тыкающем пальце и отвращало, когда поток спермы ринулся с экранов на лица зрителей. Возможно, только ради одной этой сцены и создавался целый фильм. Ноэ просто пошутил. Это исходит и из того, что данный фильм показал мастеровитость режиссера, его остроумие и чувственность пронизывали весь фильм. Он заставлял испытывать различные эмоции. Я искренне смеялся, сочувствовал и конечно, периодически, в моих штанах становилось тесно.
Успел Ноэ, так же, обсудить со зрителем возможность получения второго шанса. Он очень точно показал душевные терзания, раненного любовью, Мёрфи. Не та женщина в его собственной квартире, но в его голове, выполняет роль злобной комендантши, а лопнувший презерватив уже не дает права изменения выбора. В такой ситуации люди думают, если получат еще один шанс, то все изменят. Но они заблуждаются, людьми управляют не намерения и желания, а демоны, живущие внутри. Поэтому мольба о втором шансе никогда не получит ответа. Мёрфи получил дельный совет от девушки, которая говорила о том, что страдания бесполезны, ведь мы постоянно влюбляемся. И вопросом времени, как для Мёрфи, так и для идеи в целом, является тот момент, когда все сломается. Когда страстный и чувственный секс превратится в животный, инстинктивный и грубый.
После чая пуэр-шу, несмотря на землянисто-древесный вкус, остается сладкое длительное послевкусие. Подобное послевкусие осталось и после «Love» Гаспара Ноэ. Кроме очевидного, Ноэ взял еще потрясающим уместным саундтреком, играми с цветом и крутым актерским составом.
Премьера (мир): 20 мая 2015
. .
За русскую дорогу спасибо
-Качество: BDRip (by Ash61)
Контейнер: MKV
Формат 3D: Half OverUnder / Вертикальная анаморфная стереопара
Порядок ракурсов: левый ракурс первый-Видео: AVC / 23,976 fps / 1920х1080p / ~8.3 Mbps
Аудио:
#1 - Русский / AC3 / 48 KHz / 5.1 ch / 448 Kbps (MVO - IPTV)
#2 - Английский / AC3 / 48 KHz / 5.1 ch / 640 Kbps (Original - BD 3D)
Субтитры: Отсутствуют

MediaInfo

General
Unique ID : 170223748695305484473663057051951206520 (0x800FE6C7C6376FA5BD6D262906A29078)
Complete name : E:\Love(2015)3D-halfOU(Ash61)(Audio-IPTV).mkv
Format : Matroska
Format version : Version 2
File size : 9.05 GiB
Duration : 2h 15mn
Overall bit rate : 9 581 Kbps
Movie name : Любовь / Love (2015) в 3Д
Encoded date : UTC 2015-12-05 15:51:50
Writing application : mkvmerge v5.8.0 ('No Sleep / Pillow') built on Sep 2 2012 15:37:04
Writing library : libebml v1.2.3 + libmatroska v1.3.0
Video
ID : 1
Format : AVC
Format/Info : Advanced Video Codec
Format profile : High@L4.1
Format settings, CABAC : Yes
Format settings, ReFrames : 4 frames
Codec ID : V_MPEG4/ISO/AVC
Duration : 2h 15mn
Bit rate : 8 302 Kbps
Width : 1 920 pixels
Height : 1 080 pixels
Display aspect ratio : 16:9
Frame rate mode : Constant
Frame rate : 23.976 fps
Color space : YUV
Chroma subsampling : 4:2:0
Bit depth : 8 bits
Scan type : Progressive
Bits/(Pixel*Frame) : 0.167
Stream size : 7.84 GiB (87%)
Title : BDRip by Ash61
Writing library : x264 core 146 r2538 121396c
Encoding settings : cabac=1 / ref=4 / deblock=1:-3:-3 / analyse=0x3:0x113 / me=umh / subme=10 / psy=1 / psy_rd=1.00:0.00 / mixed_ref=1 / me_range=32 / chroma_me=1 / trellis=2 / 8x8dct=1 / cqm=0 / deadzone=21,11 / fast_pskip=1 / chroma_qp_offset=-2 / threads=12 / lookahead_threads=3 / sliced_threads=0 / nr=0 / decimate=1 / interlaced=0 / bluray_compat=0 / constrained_intra=0 / bframes=12 / b_pyramid=2 / b_adapt=2 / b_bias=0 / direct=3 / weightb=1 / open_gop=0 / weightp=2 / keyint=250 / keyint_min=23 / scenecut=40 / intra_refresh=0 / rc_lookahead=60 / rc=crf / mbtree=1 / crf=16.5 / qcomp=0.70 / qpmin=0 / qpmax=69 / qpstep=4 / vbv_maxrate=40000 / vbv_bufsize=30000 / crf_max=0.0 / nal_hrd=none / filler=0 / frame-packing=4 / ip_ratio=1.40 / aq=1:0.70
Language : English
Default : Yes
Forced : No
Audio #1
ID : 2
Format : AC-3
Format/Info : Audio Coding 3
Mode extension : CM (complete main)
Format settings, Endianness : Big
Codec ID : A_AC3
Duration : 2h 15mn
Bit rate mode : Constant
Bit rate : 448 Kbps
Channel(s) : 6 channels
Channel positions : Front: L C R, Side: L R, LFE
Sampling rate : 48.0 KHz
Bit depth : 16 bits
Compression mode : Lossy
Stream size : 433 MiB (5%)
Title : Многоголосый закадровый - IPTV
Language : Russian
Default : Yes
Forced : No
Audio #2
ID : 3
Format : AC-3
Format/Info : Audio Coding 3
Mode extension : CM (complete main)
Format settings, Endianness : Big
Codec ID : A_AC3
Duration : 2h 15mn
Bit rate mode : Constant
Bit rate : 640 Kbps
Channel(s) : 6 channels
Channel positions : Front: L C R, Side: L R, LFE
Sampling rate : 48.0 KHz
Bit depth : 16 bits
Compression mode : Lossy
Stream size : 619 MiB (7%)
Language : English
Default : No
Forced : No
Menu
00:00:00.000 : :1
00:08:17.455 : :2
00:24:28.884 : :3
00:48:29.490 : :4
01:12:18.417 : :5
01:34:09.519 : :6
01:53:43.275 : :7
02:10:22.648 : :8

Для оценки 3Д - Анимированные скрины














[Профиль] [ЛС]
Показать сообщения:    

Текущее время: Сегодня 03:32

Часовой пояс: GMT



Вы не можете начинать темы
Вы не можете отвечать на сообщения
Вы не можете редактировать свои сообщения
Вы не можете удалять свои сообщения
Вы не можете голосовать в опросах
Вы не можете прикреплять файлы к сообщениям
Вы не можете скачивать файлы