Любовь в квадрате / Des gens qui s'embrassent (2013) BDRip 720p от New-Team | P | лицензия

 
Автор Сообщение

sergej644 ®

Пол:

Стаж: 4 года 11 месяцев

Сообщений: 6042

Откуда: Soviet Union



Награды: Нет

Торрент-статистика

Создавать темы 09-Фев-2015 18:12

[Цитировать]

-Страна: Франция, Бельгия / Canal+ [fr], Ciné, G Films, Le Tax Shelter du Gouvernement Fédéral de Belgique, Pathé, TF1 Films Production, uFilm
Жанр: драма, комедия
Год выпуска: 2013
Продолжительность: 01:40:30
Перевод: Профессиональный (многоголосый закадровый)
Cубтитры: французские (forced), немецкие
Оригинальная аудиодорожка: французский
Режиссер: Даниель Томпсон / Danièle Thompson
В ролях: Эрик Элмоснино, Лу де Лааж, Кад Мерад, Клара Понсо, Макс Бублиль, Моника Беллуччи, Иври Гитлис, Валери Боннетон, Алексис Михалик, Кристиан Эк...
Описание: Похороны жены Зефа совпадают с церемонией свадьбы дочери Рони! Это неожиданное событие обостряет конфликт между двумя братьями, которых и так разделяет всё: профессии, женщины, монашество одного и жизнерадостность другого: всё, кроме их старого кутежника-отца и двух дочерей, обожающих друг друга. Столкновения, недоразумения и предательства, происходящие между Лондоном, Парижем, Сан-Тропе и Нью-Йорком, подрывают отношения семьи, но благодаря этим спорам и примирениям появляется история большой любви… а может быть, даже две истории.

Качество: BDRip 720p / DVD9 R5 - лицензионный диск от Paradise + Eine Hochzeit und andere Hindernisse 3D.iso
Формат: MKV
Видео: 1280x538 (2.40:1), MPEG-4 AVC, 4235 kbps / 23,976 fps / High Profile 4.1 / bit/pix=0.256
Аудио 1: Russian: 48 kHz, AC3, 3/2 (L,C,R,l,r) + LFE ch, 384.00 kbps constant
Аудио 2: French: 48 kHz/24-bit, DTS 5.1, ~768.00 kbps avg |оригинал|
Формат субтитров: PGS
Дополнительно: Фильм разбит на главы, как на оригинальном Blu-ray диске.
Раздача от:

MediaInfo

Общее
Полное имя : Lyubov.v.kvadrate.2013.P.BDRip.720p_[New-Team]_by_avproh.mkv
Формат : Matroska
Версия формата : Version 4 / Version 2
Размер файла : 3,78 Гбайт
Продолжительность : 1 ч. 40 м.
Общий поток : 5391 Кбит/сек
Дата кодирования : UTC 2014-09-26 16:55:37
Программа кодирования : mkvmerge v7.2.0 ('On Every Street') 64bit built on Sep 13 2014 15:52:10
Библиотека кодирования : libebml v1.3.0 + libmatroska v1.4.1
DURATION : 00:00:05.923000000
NUMBER_OF_FRAMES : 4
NUMBER_OF_BYTES : 12049
_STATISTICS_WRITING_APP : mkvmerge v7.2.0 ('On Every Street') 64bit built on Sep 13 2014 15:52:10
_STATISTICS_WRITING_DATE_UTC : 2014-09-26 16:55:37
_STATISTICS_TAGS : BPS DURATION NUMBER_OF_FRAMES NUMBER_OF_BYTES
Видео
Идентификатор : 1
Формат : AVC
Формат/Информация : Advanced Video Codec
Профиль формата : High@L4.1
Параметр CABAC формата : Да
Параметр ReFrames формата : 6 кадров
Идентификатор кодека : V_MPEG4/ISO/AVC
Продолжительность : 1 ч. 40 м.
Битрейт : 4235 Кбит/сек
Ширина : 1280 пикселей
Высота : 538 пикселей
Соотношение сторон : 2,40:1
Режим частоты кадров : Постоянный
Частота кадров : 23,976 кадра/сек
Цветовое пространство : YUV
Субдискретизация насыщенности : 4:2:0
Битовая глубина : 8 бит
Тип развёртки : Прогрессивная
Бит/(Пиксели*Кадры) : 0.256
Размер потока : 2,90 Гбайт (77%)
Библиотека кодирования : x264 core 138 r2356 a1d3d17
Настройки программы : cabac=1 / ref=6 / deblock=1:-3:-3 / analyse=0x3:0x113 / me=umh / subme=10 / psy=1 / psy_rd=1.00:0.05 / mixed_ref=1 / me_range=32 / chroma_me=1 / trellis=2 / 8x8dct=1 / cqm=0 / deadzone=21,11 / fast_pskip=0 / chroma_qp_offset=-3 / threads=6 / lookahead_threads=1 / sliced_threads=0 / nr=0 / decimate=0 / interlaced=0 / bluray_compat=0 / constrained_intra=0 / bframes=8 / b_pyramid=2 / b_adapt=2 / b_bias=0 / direct=3 / weightb=1 / open_gop=0 / weightp=2 / keyint=240 / keyint_min=24 / scenecut=40 / intra_refresh=0 / rc_lookahead=40 / rc=2pass / mbtree=1 / bitrate=4235 / ratetol=1.0 / qcomp=0.60 / qpmin=10 / qpmax=51 / qpstep=4 / cplxblur=20.0 / qblur=0.5 / vbv_maxrate=50000 / vbv_bufsize=50000 / nal_hrd=none / ip_ratio=1.40 / aq=1:0.80
Язык : French
Default : Да
Forced : Нет
DURATION : 01:40:29.732000000
NUMBER_OF_FRAMES : 144569
NUMBER_OF_BYTES : 3192063487
_STATISTICS_WRITING_APP : mkvmerge v7.2.0 ('On Every Street') 64bit built on Sep 13 2014 15:52:10
_STATISTICS_WRITING_DATE_UTC : 2014-09-26 16:55:37
_STATISTICS_TAGS : BPS DURATION NUMBER_OF_FRAMES NUMBER_OF_BYTES
Аудио #1
Идентификатор : 2
Формат : AC-3
Формат/Информация : Audio Coding 3
Расширение режима : CM (complete main)
Параметр Endianness формата : Big
Идентификатор кодека : A_AC3
Продолжительность : 1 ч. 40 м.
Вид битрейта : Постоянный
Битрейт : 384 Кбит/сек
Каналы : 6 каналов
Расположение каналов : Front: L C R, Side: L R, LFE
Частота : 48,0 КГц
Битовая глубина : 16 бит
Метод сжатия : С потерями
Размер потока : 276 Мбайт (7%)
Язык : Russian
Default : Да
Forced : Нет
Аудио #2
Идентификатор : 3
Формат : DTS
Формат/Информация : Digital Theater Systems
Режим : 16
Параметр Endianness формата : Big
Идентификатор кодека : A_DTS
Продолжительность : 1 ч. 40 м.
Вид битрейта : Постоянный
Битрейт : 768 Кбит/сек
Каналы : 6 каналов
Расположение каналов : Front: L C R, Side: L R, LFE
Частота : 48,0 КГц
Битовая глубина : 16 бит
Метод сжатия : С потерями
Размер потока : 552 Мбайт (14%)
Язык : French
Default : Нет
Forced : Нет
Текст #1
Идентификатор : 4
Формат : PGS
Режим смешивания : zlib
Идентификатор кодека : S_HDMV/PGS
Идентификатор кодека/Информация : The same subtitle format used on BDs/HD-DVDs
Заголовок : Forced
Язык : French
Default : Нет
Forced : Нет
Текст #2
Идентификатор : 5
Формат : PGS
Режим смешивания : zlib
Идентификатор кодека : S_HDMV/PGS
Идентификатор кодека/Информация : The same subtitle format used on BDs/HD-DVDs
Язык : German
Default : Нет
Forced : Нет
Меню
00:00:00.000 : en:00:00:00.000
00:02:19.014 : en:00:02:19.014
00:12:29.832 : en:00:12:29.832
00:19:21.952 : en:00:19:21.952
00:31:45.028 : en:00:31:45.028
00:43:36.989 : en:00:43:36.989
00:52:40.407 : en:00:52:40.407
01:03:10.161 : en:01:03:10.161
01:08:27.937 : en:01:08:27.937
01:15:30.943 : en:01:15:30.943
01:25:48.935 : en:01:25:48.935
01:34:32.917 : en:01:34:32.917

Скриншоты:

[Профиль] [ЛС]
Показать сообщения:    

Текущее время: Сегодня 08:56

Часовой пояс: GMT



Вы не можете начинать темы
Вы не можете отвечать на сообщения
Вы не можете редактировать свои сообщения
Вы не можете удалять свои сообщения
Вы не можете голосовать в опросах
Вы не можете прикреплять файлы к сообщениям
Вы не можете скачивать файлы