Любовь в большом городе 3 (Марюс Вайсберг, Дэвид Додсон) [2013, Россия, Украина, комедия, мелодрама, фэнтези, HDTV 1080i] + Original Rus

 
Автор Сообщение

TorrentFilm ®

Пол:

Стаж: 1 год 11 месяцев

Сообщений: 7741



Награды: Нет

Торрент-статистика

Создавать темы 11-Сен-2015 00:06

[Цитировать]

Любовь в большом городе 3
Страна: Россия, Украина
Жанр: комедия, мелодрама, фэнтези
Год выпуска: 2013
Продолжительность: 01:18:47
Перевод: Не требуется
Cубтитры: нет
Оригинальная аудиодорожка: русский
Режиссер: Марюс Вайсберг, Дэвид Додсон
В ролях: Алексей Чадов, Владимир Зеленский, Светлана Ходченкова, Вера Брежнева, Вилле Хаапасало, Настя Задорожная, Филипп Киркоров, Шэрон Стоун, Игорь Жижикин, Екатерина Климова
Описание: В жизни каждого отца, рано или поздно наступает момент, когда жена улетает на заслуженный отдых, а он остается один на один с собственным ребенком. Казалось бы — ничего сложного! Также подумали Игорь, Артем и Сауна, даже не подозревая, какой «водопад» приключений накроет их с головой.
Измученные «прелестями» отцовства, парни встречают своего старого приятеля Святого Валентина. Снимая стресс за бутылочкой виски, ребята в шутку мечтают о том, чтобы их дети поскорее стали взрослыми.
А на утро, шокированные папаши понимают — их мечта сбылась и теперь они на собственной шкуре поймут, что значит поговорка: Большие дети — большие проблемы…
Сэмпл: https://yadi.sk/i/tKoDUcGLivoJE

Тип релиза: HDTV 1080i
Контейнер: TS
Видео: AVC/H.264, PAL, 1920x1080 (16:9), 10,5 Мбит/сек, 25.000 fps
Аудио 1: русский, MP2, 2ch, 48,0 КГц, 192 Кбит/сек
Аудио 2: русский, AC3, 6ch, 48,0 КГц, 448 Кбит/сек

MediaInfo

Общее
Идентификатор : 1 (0x1)
Полное имя : F:\раздачи\Любовь в большом городе 3.ts
Формат : MPEG-TS
Размер файла : 6,46 Гбайт
Продолжительность : 1 ч. 18 м.
Режим общего битрейта : Переменный
Общий поток : 11,7 Мбит/сек
Видео
Идентификатор : 3551 (0xDDF)
Идентификатор меню : 1 (0x1)
Формат : AVC
Формат/Информация : Advanced Video Codec
Профиль формата : Main@L4.0
Параметр CABAC формата : Да
Параметр ReFrames формата : 3 кадра
Параметр GOP формата : M=4, N=32
Идентификатор кодека : 27
Продолжительность : 1 ч. 18 м.
Битрейт : 10,5 Мбит/сек
Ширина : 1920 пикселей
Высота : 1080 пикселей
Соотношение сторон : 16:9
Частота кадров : 25,000 кадров/сек
Стандарт вещания : Component
Цветовое пространство : YUV
Субдискретизация насыщенности : 4:2:0
Битовая глубина : 8 бит
Тип развёртки : Чересстрочная
Порядок развёртки : Верхнее поле первое
Бит/(Пиксели*Кадры) : 0.203
Размер потока : 5,79 Гбайт (90%)
Основные цвета : BT.709
Характеристики трансфера : BT.709
Коэффициенты матрицы : BT.709
colour_range : Limited
Аудио #1
Идентификатор : 3552 (0xDE0)
Идентификатор меню : 1 (0x1)
Формат : MPEG Audio
Версия формата : Version 1
Профиль формата : Layer 2
Идентификатор кодека : 3
Продолжительность : 1 ч. 18 м.
Вид битрейта : Постоянный
Битрейт : 192 Кбит/сек
Каналы : 2 канала
Частота : 48,0 КГц
Метод сжатия : С потерями
Размер потока : 108 Мбайт (2%)
Язык : Russian
Аудио #2
Идентификатор : 3553 (0xDE1)
Идентификатор меню : 1 (0x1)
Формат : AC-3
Формат/Информация : Audio Coding 3
Расширение режима : CM (complete main)
Параметр Endianness формата : Big
Идентификатор кодека : 6
Продолжительность : 1 ч. 18 м.
Вид битрейта : Постоянный
Битрейт : 448 Кбит/сек
Каналы : 6 каналов
Расположение каналов : Front: L C R, Side: L R, LFE
Частота : 48,0 КГц
Битовая глубина : 16 бит
Метод сжатия : С потерями
Размер потока : 252 Мбайт (4%)
Язык : Russian

Скриншот с названием фильма

Скриншоты

[Профиль] [ЛС]
Показать сообщения:    

Текущее время: Сегодня 04:57

Часовой пояс: GMT



Вы не можете начинать темы
Вы не можете отвечать на сообщения
Вы не можете редактировать свои сообщения
Вы не можете удалять свои сообщения
Вы не можете голосовать в опросах
Вы не можете прикреплять файлы к сообщениям
Вы не можете скачивать файлы