Любовь в большом городе 2 (Марюс Вайсберг) [2010, Россия, комедия, BDRip 1080p]

 
Автор Сообщение

TorrentFilm ®

Пол:

Стаж: 2 года

Сообщений: 7741



Награды: Нет

Торрент-статистика

Создавать темы 11-Фев-2015 00:01

[Цитировать]

Любовь в большом городе 2- Год выпуска: 2010
Выпущено: Россия
Жанр: комедия
Продолжительность: 01:32:55
Субтитры: нет-Режиссер: Марюс Вайсберг
В ролях: Вера Брежнева, Алексей Чадов, Анастасия Задорожная, Светлана Ходченкова, Вилле Хаапасало, Владимир Зеленский, Филипп Киркоров, Павел Воля, Леонид Ярмольник, Игорь Верник
О фильме: Игорь приглашает Сауну и Артема с возлюбленными на ранчо к отцу. Ребята смогут отдохнуть, а Игорь наконец-то познакомит Настю с будущим тестем. Друзья пакуют чемоданы.
В самолете они знакомятся с парочкой американцев, которые рассказывают им о неком монастыре на окраине города, где будут жить наши герои, святом месте, согласно древнему преданию помогающем в борьбе с бесплодием. Игорь, Артем и Сауна единодушны — к отцовству они еще не готовы. Но на экскурсию в монастырь все-таки едут. Несмотря на предупреждение монаха, друзья прикасаются к «идолу», и теперь они обречены при первом же половом акте зачать ребенка. Они озадачены — стоит верить предрассудкам или нет? На всякий случай, они решают временно воздержаться от секса. Девушки, узнав о причине такого странного поведения любимых, обижаются и уезжают.
Оставшись одни, ребята решают оттянуться по полной, но тут на их пути снова появляется Святой Валентин. Он возмущен: как они могли не воспользоваться таким благословением? Рождается новое заклятие. Тот из троих кто окажется первым в постели с женщиной — станет отцом. Остальные смогут иметь детей лишь через 10 лет. О таком повороте событий никто и помыслить не мог. Все трое внезапно осознают, что готовы к отцовству… Приключения начинаются.-Релиз:
Формат: MKV
Источник: Любовь в большом городе 2 (2010) Blu-ray 1080p AVC DTS-HD 5.1 - HDClub
Видео: 1920x848 at 23.976 fps, x264@L4.1, crf, ~18700 kbps avg
Аудио: Russian: 48 kHz/16-bit, DTS, 3/2 (L,C,R,l,r) + LFE ch, ~1510.00 kbps avg
Семпл-

Source vs Encode






-

mInfo

Формат : Matroska
Версия формата : Version 2
Размер файла : 13,4 Гбайт
Продолжительность : 1 ч. 32 м.
Общий поток : 20,6 Мбит/сек
Название фильма : Lyubov v bolshom gorode 2 (2010) - Release for HDCLUB
Дата кодирования : UTC 2014-08-13 22:42:28
Программа кодирования : mkvmerge v5.7.0 ('The Whirlwind') built on Jul 8 2012 20:08:51
Библиотека кодирования : libebml v1.2.3 + libmatroska v1.3.0
Видео
Идентификатор : 1
Формат : AVC
Формат/Информация : Advanced Video Codec
Профиль формата : High@L4.1
Параметр CABAC формата : Да
Параметр ReFrames формата : 5 кадров
Идентификатор кодека : V_MPEG4/ISO/AVC
Продолжительность : 1 ч. 32 м.
Битрейт : 18,7 Мбит/сек
Ширина : 1920 пикселей
Высота : 848 пикселей
Соотношение сторон : 2,25:1
Режим частоты кадров : Постоянный
Частота кадров : 23,976 кадра/сек
Цветовое пространство : YUV
Субдискретизация насыщенности : 4:2:0
Битовая глубина : 8 бит
Тип развёртки : Прогрессивная
Бит/(Пиксели*Кадры) : 0.479
Размер потока : 12,1 Гбайт (91%)
Библиотека кодирования : x264 core 142 r2431 ac76440
Настройки программы : cabac=1 / ref=5 / deblock=1:-3:-3 / analyse=0x3:0x133 / me=umh / subme=11 / psy=1 / psy_rd=1.00:0.00 / mixed_ref=1 / me_range=64 / chroma_me=1 / trellis=2 / 8x8dct=1 / cqm=0 / deadzone=21,11 / fast_pskip=1 / chroma_qp_offset=-2 / threads=12 / lookahead_threads=2 / sliced_threads=0 / nr=0 / decimate=1 / interlaced=0 / bluray_compat=0 / constrained_intra=0 / bframes=9 / b_pyramid=2 / b_adapt=2 / b_bias=0 / direct=3 / weightb=1 / open_gop=0 / weightp=2 / keyint=240 / keyint_min=22 / scenecut=40 / intra_refresh=0 / rc_lookahead=40 / rc=crf / mbtree=0 / crf=18.0 / qcomp=0.60 / qpmin=0 / qpmax=69 / qpstep=4 / vbv_maxrate=62500 / vbv_bufsize=78125 / crf_max=0.0 / nal_hrd=none / filler=0 / ip_ratio=1.30 / pb_ratio=1.20 / aq=1:1.00
Язык : Russian
Default : Да
Forced : Нет
Аудио
Идентификатор : 2
Формат : DTS
Формат/Информация : Digital Theater Systems
Режим : 16
Параметр Endianness формата : Big
Идентификатор кодека : A_DTS
Продолжительность : 1 ч. 32 м.
Вид битрейта : Постоянный
Битрейт : 1509 Кбит/сек
Каналы : 6 каналов
Расположение каналов : Front: L C R, Side: L R, LFE
Частота : 48,0 КГц
Битовая глубина : 24 бит
Метод сжатия : С потерями
Размер потока : 1003 Мбайт (7%)
Язык : Russian
Default : Да
Forced : Нет
Меню
00:00:00.000 : :00:00:00.000
00:05:39.839 : :00:05:39.839
00:11:04.372 : :00:11:04.372
00:16:25.860 : :00:16:25.860
00:22:51.328 : :00:22:51.328
00:28:56.193 : :00:28:56.193
00:34:52.173 : :00:34:52.173
00:39:51.264 : :00:39:51.264
00:45:55.419 : :00:45:55.419
00:51:45.352 : :00:51:45.352
00:56:44.735 : :00:56:44.735
01:01:49.873 : :01:01:49.873
01:08:29.314 : :01:08:29.314
01:14:16.410 : :01:14:16.410
01:19:59.837 : :01:19:59.837
01:25:38.091 : :01:25:38.091
-
[Профиль] [ЛС]
Показать сообщения:    

Текущее время: Сегодня 08:49

Часовой пояс: GMT



Вы не можете начинать темы
Вы не можете отвечать на сообщения
Вы не можете редактировать свои сообщения
Вы не можете удалять свои сообщения
Вы не можете голосовать в опросах
Вы не можете прикреплять файлы к сообщениям
Вы не можете скачивать файлы