Любовь в большом городе 2 (Марюс Вайсберг) [2010 г., фэнтези, мелодрама, комедия, BDRip 720p]

 
Автор Сообщение

painkiller ®

Стаж: 2 года 3 месяца

Сообщений: 582



Награды: Нет

Торрент-статистика

Создавать темы 14-Авг-2014 09:21

[Цитировать]

Любовь в большом городе 2 Страна: Россия
Жанр: фэнтези, мелодрама, комедия
Год выпуска: 2010
Продолжительность: 01:32:55-Перевод: Оригинал
Cубтитры: нет
Оригинальная аудиодорожка: Russian-Режиссер: Марюс Вайсберг
В ролях: Вера Брежнева, Алексей Чадов, Анастасия Задорожная, Светлана Ходченкова, Вилле Хаапасало, Владимир Зеленский, Филипп Киркоров, Павел Воля, Леонид Ярмольник, Игорь Верник-Описание: Игорь приглашает Сауну и Артема с возлюбленными на ранчо к отцу. Ребята смогут отдохнуть, а Игорь наконец-то познакомит Настю с будущим тестем. Друзья пакуют чемоданы.
В самолете они знакомятся с парочкой американцев, которые рассказывают им о неком монастыре на окраине города, где будут жить наши герои, святом месте, согласно древнему преданию помогающем в борьбе с бесплодием. Игорь, Артем и Сауна единодушны — к отцовству они еще не готовы. Но на экскурсию в монастырь все-таки едут. Несмотря на предупреждение монаха, друзья прикасаются к «идолу», и теперь они обречены при первом же половом акте зачать ребенка. Они озадачены — стоит верить предрассудкам или нет? На всякий случай, они решают временно воздержаться от секса. Девушки, узнав о причине такого странного поведения любимых, обижаются и уезжают.
Оставшись одни, ребята решают оттянуться по полной, но тут на их пути снова появляется Святой Валентин. Он возмущен: как они могли не воспользоваться таким благословением? Рождается новое заклятие. Тот из троих кто окажется первым в постели с женщиной — станет отцом. Остальные смогут иметь детей лишь через 10 лет. О таком повороте событий никто и помыслить не мог. Все трое внезапно осознают, что готовы к отцовству… Приключения начинаются.- -Качество: BDRip 720p
Контейнер: MKV
Видео: H.264, 1280x564, 23,976 fps, 5218 kbps
Аудио: Russian: DTS 5.1, 48 kHz, 1536 kbps avg

MediaInfo

General
Unique ID : 209127189749148663885504427530921922447 (0x9D546E8363B20AB183BB143B0C9B4F8F)
Complete name : D:\Lyubov.v.bolshom.gorode.2.2010.BDRip.720p.mkv
Format : Matroska
File size : 4.37 GiB
Duration : 1h 32mn
Overall bit rate : 6 725 Kbps
Movie name : Любовь в большом городе 2
Encoded date : UTC 2012-03-16 15:11:10
Writing application : mkvmerge v5.1.0 ('And so it goes') built on Nov 28 2011 23:58:28
Writing library : libebml v1.2.3 + libmatroska v1.3.0
Video
ID : 1
Format : AVC
Format/Info : Advanced Video Codec
Format profile : High@L4.1
Format settings, CABAC : Yes
Format settings, ReFrames : 7 frames
Codec ID : V_MPEG4/ISO/AVC
Duration : 1h 32mn
Bit rate : 5 218 Kbps
Width : 1 280 pixels
Height : 564 pixels
Display aspect ratio : 2.25:1
Frame rate : 23.976 fps
Color space : YUV
Chroma subsampling : 4:2:0
Bit depth : 8 bits
Scan type : Progressive
Bits/(Pixel*Frame) : 0.301
Stream size : 3.30 GiB (76%)
Title : Любовь в большом городе 2
Writing library : x264 core 94 r1564 a927654
Encoding settings : cabac=1 / ref=8 / deblock=1:-3:-3 / analyse=0x3:0x133 / me=umh / subme=9 / psy=1 / psy_rd=1.00:0.00 / mixed_ref=1 / me_range=32 / chroma_me=1 / trellis=2 / 8x8dct=1 / cqm=0 / deadzone=21,11 / fast_pskip=0 / chroma_qp_offset=-2 / threads=12 / sliced_threads=0 / nr=0 / decimate=1 / interlaced=0 / constrained_intra=0 / bframes=8 / b_pyramid=1 / b_adapt=2 / b_bias=0 / direct=3 / wpredb=1 / wpredp=2 / keyint=250 / keyint_min=25 / scenecut=40 / intra_refresh=0 / rc_lookahead=0 / rc=2pass / mbtree=0 / bitrate=5218 / ratetol=1.0 / qcomp=0.60 / qpmin=10 / qpmax=51 / qpstep=4 / cplxblur=20.0 / qblur=0.5 / vbv_maxrate=50000 / vbv_bufsize=62500 / ip_ratio=1.40 / pb_ratio=1.30 / aq=1:0.80 / nal_hrd=none
Language : Russian
Audio
ID : 2
Format : DTS
Format/Info : Digital Theater Systems
Codec ID : A_DTS
Duration : 1h 32mn
Bit rate mode : Constant
Bit rate : 1 510 Kbps
Channel(s) : 6 channels
Channel positions : Front: L C R, Side: L R, LFE
Sampling rate : 48.0 KHz
Bit depth : 24 bits
Compression mode : Lossy
Stream size : 1 004 MiB (22%)
Title : DTS
Language : Russian
Menu
00:00:00.000 : ru:Chapter 01
00:05:39.839 : ru:Chapter 02
00:11:04.372 : ru:Chapter 03
00:16:25.859 : ru:Chapter 04
00:22:51.328 : ru:Chapter 05
00:28:56.192 : ru:Chapter 06
00:34:52.173 : ru:Chapter 07
00:39:51.263 : ru:Chapter 08
00:45:55.419 : ru:Chapter 09
00:51:45.352 : ru:Chapter 10
00:56:44.734 : ru:Chapter 11
01:01:49.872 : ru:Chapter 12
01:08:29.313 : ru:Chapter 13
01:14:16.410 : ru:Chapter 14
01:19:59.836 : ru:Chapter 15
01:25:38.091 : ru:Chapter 16

Скриншоты

[Профиль] [ЛС]
Показать сообщения:    

Текущее время: Сегодня 19:36

Часовой пояс: GMT



Вы не можете начинать темы
Вы не можете отвечать на сообщения
Вы не можете редактировать свои сообщения
Вы не можете удалять свои сообщения
Вы не можете голосовать в опросах
Вы не можете прикреплять файлы к сообщениям
Вы не можете скачивать файлы