Любовь вразнос / Papa ou maman (2015) BDRip 1080p | D

 
Автор Сообщение

Russian Mafia ®

Пол:

Стаж: 1 год 8 месяцев

Сообщений: 4257



Награды: 10 (Подробнее)

Mega Seeder 1 (Количество: 1) Mega Seeder 4 (Количество: 1) Top Releaser 2 (Количество: 1)
Торрент-статистика

Создавать темы 15-Сен-2015 10:06

[Цитировать]

Информация о фильме
Название: Любовь вразнос
Оригинальное название: Papa ou maman
Год выхода: 2015
Жанр: Комедия
Режиссер: Мартин Бурбулон
В ролях: Лоран Лафитт, Марина Фоис, Александр Десрусу, Анна Лемаршан, Акилле Потье, Жюдит Эль Зейн, Микаэль Абитбуль, Ванесса Гуид, Мишель Вюйермоз, Анн Лё Ни, Ив Верховен, Янник Шуара, Жан-Баптист Фонк, Теолин Ланкрие, Мирей Франчино, Эрик Наггар, Пьер Сэмюэл, Лилия-Флёр Пуанто, Дэнис Лелюк, Эстебан Тигаргар
О фильме:
Лоран Лафитт, Марина Фоис и Анн Ле Ни в комедии Мартина Бурбулона «Любовь вразнос». Флоренс и Винсент живут завидной жизнью. Они добиваются высоких показателей в бизнесе, а успех становится их главным ориентиром. Но приходит день, когда герои решают развестись. Ожидаемо, что и развод станет для героев ареной, на которой можно лишний раз продемонстрировать свою успешность. Камнем преткновения для супругов становятся общие дети. Флоренс абсолютно уверена, что Винсент и дня не вытерпит без любимых отпрысков, а Винсент в свою очередь считает, что для Флоренс разлука с ними станет тяжелым испытанием, которое она не в силах перенести. Иными словами, каждый не прочь переложить воспитание детей на плечи другого. Но мирно договориться у взрослых не получается, и тогда дело переходит в руки самих детей. Теперь они должны решить, с кем из родителей хотят остаться. Флоренс и Винсент приложат всевозможные усилия, чтобы показать детям, как же им будет хорошо у другого родителя. Для того чтобы узнать, к чему в приведет эта семейная неразбериха, можно смотреть онлайн «Любовь вразнос».

Страна: Франция, Бельгия
Студия: Canal+, Chapter 2, Ciné, Fargo Films, Jouror Productions
Продолжительность: 01:20:38
Перевод: Дублированный (BD RUS)
Файл
Кодек: MPEG-4 AVC
Качество: BDRip 1080p
Видео: 7114 Кбит/с, 1920x800, 25 кадр/с
Звук: Русский (AC3, 6 ch, 640 Кбит/с)

Релиз

Рип от StarbirS
Аудио: Russian: AC3, 48 kHz, AC3, 3/2 (L,C,R,l,r) + LFE ch, ~640.00 kbps avg - Дублированный (BD RUS)
x264 [info]: frame I:870 Avg QP:16.33 size:146790
x264 [info]: frame P:31586 Avg QP:19.69 size: 59359
x264 [info]: frame B:88506 Avg QP:21.09 size: 25931

Инфо-файл

Формат : Matroska
Версия формата : Version 2
Размер файла : 4,36 Гбайт
Продолжительность : 1 ч. 20 м.
Общий поток : 7748 Кбит/сек
Название фильма : Papa.ou.maman.2015.x264.BDRip.1080p.Rus
Дата кодирования : UTC 2015-09-14 15:15:14
Программа кодирования : mkvmerge v7.9.0 ('Birds') 64bit
Библиотека кодирования : libebml v1.3.1 + libmatroska v1.4.2
Видео
Идентификатор : 1
Формат : AVC
Формат/Информация : Advanced Video Codec
Профиль формата : High@L4.1
Параметр CABAC формата : Да
Параметр ReFrames формата : 5 кадров
Идентификатор кодека : V_MPEG4/ISO/AVC
Продолжительность : 1 ч. 20 м.
Битрейт : 7114 Кбит/сек
Ширина : 1920 пикселей
Высота : 800 пикселей
Соотношение сторон : 2,40:1
Режим частоты кадров : Постоянный
Частота кадров : 25,000 кадров/сек
Цветовое пространство : YUV
Субдискретизация насыщенности : 4:2:0
Битовая глубина : 8 бит
Тип развёртки : Прогрессивная
Бит/(Пиксели*Кадры) : 0.185
Размер потока : 3,92 Гбайт (90%)
Заголовок : Papa.ou.maman.2015.x264.BDRip.1080p.Rus.by.StarbirS
Библиотека кодирования : x264 core 146 r2538 121396c
Настройки программы : cabac=1 / ref=5 / deblock=1:-3:-3 / analyse=0x3:0x113 / me=umh / subme=10 / psy=1 / psy_rd=1.05:0.20 / mixed_ref=1 / me_range=48 / chroma_me=1 / trellis=2 / 8x8dct=1 / cqm=0 / deadzone=21,11 / fast_pskip=0 / chroma_qp_offset=-3 / threads=12 / lookahead_threads=2 / sliced_threads=0 / nr=0 / decimate=0 / interlaced=0 / bluray_compat=0 / constrained_intra=0 / bframes=9 / b_pyramid=2 / b_adapt=2 / b_bias=0 / direct=3 / weightb=1 / open_gop=1 / weightp=2 / keyint=240 / keyint_min=23 / scenecut=40 / intra_refresh=0 / rc_lookahead=80 / rc=2pass / mbtree=1 / bitrate=7114 / ratetol=1.0 / qcomp=0.70 / qpmin=0 / qpmax=69 / qpstep=4 / cplxblur=20.0 / qblur=0.5 / ip_ratio=1.40 / aq=2:0.70
Язык : English
Default : Да
Forced : Нет
Аудио
Идентификатор : 2
Формат : AC-3
Формат/Информация : Audio Coding 3
Расширение режима : CM (complete main)
Параметр Endianness формата : Big
Идентификатор кодека : A_AC3
Продолжительность : 1 ч. 20 м.
Вид битрейта : Постоянный
Битрейт : 640 Кбит/сек
Каналы : 6 каналов
Расположение каналов : Front: L C R, Side: L R, LFE
Частота : 48,0 КГц
Метод сжатия : С потерями
Размер потока : 369 Мбайт (8%)
Заголовок : Дублированный (BD RUS)
Язык : Russian
Default : Да
Forced : Нет
Меню
00:00:00.000 : en:00:00:00.000
00:01:05.080 : en:00:01:05.080
00:09:32.280 : en:00:09:32.280
00:18:30.880 : en:00:18:30.880
00:29:04.280 : en:00:29:04.280
00:40:36.920 : en:00:40:36.920
00:52:31.920 : en:00:52:31.920
00:59:07.120 : en:00:59:07.120
01:08:46.200 : en:01:08:46.200

Скриншоты


[Профиль] [ЛС]
Показать сообщения:    

Текущее время: Сегодня 10:07

Часовой пояс: GMT



Вы не можете начинать темы
Вы не можете отвечать на сообщения
Вы не можете редактировать свои сообщения
Вы не можете удалять свои сообщения
Вы не можете голосовать в опросах
Вы не можете прикреплять файлы к сообщениям
Вы не можете скачивать файлы