Любовь во время холеры / Love in the Time of Cholera (2007) HDRip | Лицензия

 
Автор Сообщение

BOSS ®

Пол:

Стаж: 2 года 11 месяцев

Сообщений: 7144

Откуда: ODESSA



Награды: 20 (Подробнее)

Top Releaser 4 (Количество: 1) Top Keeper 2 (Количество: 1) Top Keeper 1 (Количество: 1)
Торрент-статистика

Создавать темы 07-Сен-2017 10:41

[Цитировать]

Любовь во время холеры / Love in the Time of Cholera
Страна: США
Производство: New Line Cinema, Grosvenor Park Media, Stone Village Productions
Год выпуска: 2007
Жанр: драма, мелодрама
Продолжительность: 02:12:41
Режиссер: Майк Ньюэлл
Авторы сценария: Рональд Харвуд, Габриэль Гарсия Маркес
В ролях: Хавьер Бардем, Джованна Меццоджорно, Бенджамин Брэтт, Лив Шрайбер, Джон Легуизамо, Гектор Элизондо, Джина Бернард Форбс
Описание: Прекрасный, но бедный юноша Флорентино Ариза признаётся Фермине Дазе в вечной любви, однако девушка выходит замуж за более состоятельного поклонника. Но Флорентино не отступается от своей любви. Он верит. Верит и ждёт. Проходит путь от посыльного до преуспевающего судового магната, добивается богатства, славы и признания в надежде когда-нибудь заполучить свою Фермину. Проходит больше полувека. Роковая случайность и…влюблённые снова готовы кинуться в объятия друг друга...

Перевод: Профессиональный (полное дублирование) | Лицензия
Субтитры: нет-Качество: HDRip
Формат: AVI
Видео кодек: XviD
Аудио кодек: AC3
Видео: 704x384 (1.85:1), 25.000 fps, XviD ~1 180 kbps avg
Аудио: 48.0 kHz, AC3 Dolby Digital, 3/2 (L,C,R,l,r) + LFE ch, ~384 kbps
Бюджет: $45 000 000
Дата премьеры (мир): 4 октября 2007
Дата премьеры (РФ): 6 марта 2008, «Парадиз»

Media Info

General
Complete name : Love in the Time of Cholera.avi
Format : AVI
Format/Info : Audio Video Interleave
File size : 1.46 GiB
Duration : 2h 12mn
Overall bit rate : 1 573 Kbps
Movie name : Love in the Time of Cholera 2007
Genre : Drama
Writing application : VirtualDubMod 1.5.10.2 (build 2540/release)
Original source form/Name : Movie
Video
ID : 0
Format : MPEG-4 Visual
Format profile : Advanced Simple@L5
Format settings, BVOP : 1
Format settings, QPel : No
Format settings, GMC : No warppoints
Format settings, Matrix : Default (MPEG)
Codec ID : XVID
Codec ID/Hint : XviD
Duration : 2h 12mn
Bit rate : 1 180 Kbps
Width : 704 pixels
Height : 384 pixels
Display aspect ratio : 1.85:1
Frame rate : 25.000 fps
Color space : YUV
Chroma subsampling : 4:2:0
Bit depth : 8 bits
Scan type : Progressive
Compression mode : Lossy
Bits/(Pixel*Frame) : 0.175
Stream size : 1.09 GiB (75%)
Writing library : XviD 1.2.1 (UTC 2008-12-04)
Audio
ID : 1
Format : AC-3
Format/Info : Audio Coding 3
Mode extension : CM (complete main)
Format settings, Endianness : Big
Codec ID : 2000
Duration : 2h 12mn
Bit rate mode : Constant
Bit rate : 384 Kbps
Channel(s) : 6 channels
Channel positions : Front: L C R, Side: L R, LFE
Sampling rate : 48.0 KHz
Compression mode : Lossy
Stream size : 364 MiB (24%)
Alignment : Split accross interleaves
Interleave, duration : 40 ms (1.00 video frame)
Interleave, preload duration : 500 ms

Скриншоты

[Профиль] [ЛС]
Показать сообщения:    

Текущее время: Сегодня 04:15

Часовой пояс: GMT



Вы не можете начинать темы
Вы не можете отвечать на сообщения
Вы не можете редактировать свои сообщения
Вы не можете удалять свои сообщения
Вы не можете голосовать в опросах
Вы не можете прикреплять файлы к сообщениям
Вы не можете скачивать файлы