Любовь – болезнь / The Big Sick (2017) BDRip 720p | L

 
Автор Сообщение

BOSS ®

Пол:

Стаж: 3 года 2 месяца

Сообщений: 8627

Откуда: ODESSA



Награды: 22 (Подробнее)

Top Releaser 4 (Количество: 1) Top Seeder 2 (Количество: 1) Mega Releaser 1 (Количество: 1)
Торрент-статистика

Создавать темы 08-Окт-2017 16:32

[Цитировать]

Информация о фильме
Наименование: Любовь – болезнь
Оригинальное наименование: The Big Sick
Произведено: США
Категория: мелодрама, комедия
Режиссер постановщик: Майкл Шоуолтер
В главных ролях: Холли Хантер, Зои Казан, Кумэйл Нанджиани, Мэттью Кардаропле, Велла Ловелл, Рэй Романо, Адиль Ахтар, Бо Бёрнэм, Дэвид Алан Грир, Анупам Кхер
О фильме:
По мере развития отношений влюбленной паре приходится столкнуться со своими культурными различиями.

Файл
Качество: BDRip 720p
Видео данные: MKV, 1280x688 (1.85:1), 23.976 fps, 4000 Кбит/с
Аудио данные: Русский (MP3, 2 ch, 320 Кбит/с)
Перевод: Любительский многоголосый (GreenРай Studio)
Продолжительность: 02:00:46

Mediainfo

General
Unique ID : 236489389138444413421215903308307089085 (0xB1EA33197465C795BFB4735A390DC6BD)
Complete name : D:Рабочий столThe.Big.Sick.2017.P.BDRip.720p.mkv
Format : Matroska
Format version : Version 4 / Version 2
File size : 3.62 GiB
Duration : 2 h 0 min
Overall bit rate mode : Constant
Overall bit rate : 4 285 kb/s
Movie name : My.Cousin.Rachel.2017 - TorpedoUK
Encoded date : UTC 2017-10-06 13:13:37
Writing application : mkvmerge v8.3.0 ('Over the Horizon') 64bit
Writing library : libebml v1.3.1 + libmatroska v1.4.2
Video
ID : 1
Format : AVC
Format/Info : Advanced Video Codec
Format profile : Main@L3.1
Format settings, CABAC : Yes
Format settings, ReFrames : 3 frames
Format settings, GOP : M=4, N=15
Codec ID : V_MPEG4/ISO/AVC
Duration : 2 h 0 min
Bit rate mode : Constant
Bit rate : 4 000 kb/s
Width : 1 280 pixels
Height : 688 pixels
Display aspect ratio : 1.85:1
Frame rate mode : Constant
Frame rate : 23.976 (23976/1000) FPS
Standard : NTSC
Color space : YUV
Chroma subsampling : 4:2:0
Bit depth : 8 bits
Scan type : Progressive
Bits/(Pixel*Frame) : 0.189
Stream size : 3.35 GiB (92%)
Language : English
Default : Yes
Forced : No
Color range : Limited
Audio
ID : 2
Format : MPEG Audio
Format version : Version 1
Format profile : Layer 3
Mode : Joint stereo
Codec ID : A_MPEG/L3
Codec ID/Hint : MP3
Duration : 2 h 0 min
Bit rate mode : Constant
Bit rate : 320 kb/s
Channel(s) : 2 channels
Sampling rate : 48.0 kHz
Frame rate : 41.667 FPS (1152 spf)
Compression mode : Lossy
Stream size : 277 MiB (7%)
Default : Yes
Forced : No
ВНИМАНИЕ! Присутствует реклама!

Скриншоты

Релиз от:
[Профиль] [ЛС]
Показать сообщения:    

Текущее время: Сегодня 05:05

Часовой пояс: GMT



Вы не можете начинать темы
Вы не можете отвечать на сообщения
Вы не можете редактировать свои сообщения
Вы не можете удалять свои сообщения
Вы не можете голосовать в опросах
Вы не можете прикреплять файлы к сообщениям
Вы не можете скачивать файлы