Любовный переплет / The Oranges (2011) BDRip 720p

 
Автор Сообщение

sergej644 ®

Пол:

Стаж: 4 года 11 месяцев

Сообщений: 6040

Откуда: Soviet Union



Награды: Нет

Торрент-статистика

Создавать темы 31-Янв-2015 23:15

[Цитировать]

Информация о фильме
Название: Любовный переплет
Оригинальное название: The Oranges
Год выхода: 2011
Жанр: Драма, мелодрама, комедия
Режиссер: Джулиан Фарино
В ролях: Хью Лори, Кэтрин Кинер, Оливер Плэтт, Эллисон Джэнни, Алиа Шокат, Адам Броди, Лейтон Мистер, Бойд Холбрук, Тим Гини, Лукас Папаэлиас, Ая Кэш, Хун Ли, Сэм Розен, Хайди Кристоффер, Кэссиди Гард, Джон Средницкий, Дженнифер Бронштейн, Стефен Бадаламенти, Лаура Флэнеган
О фильме:
Семьи Острофф и Уоллинг дружат между собой и живут по соседству, на Орандж Драйв, как раз напротив. Дочь-транжирка, Нина Острофф, возвращается домой на День Благодарения, после пятилетнего отсутствия, недавно порвав с женихом. Вместо того, чтобы заинтересоваться успешным сыном своих соседей, Тоби Уоллингом, что устроило бы обе семьи, она обращает внимание на его отца и лучшего друга своих родителей, Дэвида Уоллинга. Когда романтические отношения между Ниной и Дэвидом становится невозможно игнорировать, жизнь обеих семей приходит в полный беспорядок.

Страна: США
Студия: Likely Story, Olympus Pictures
Продолжительность: 01:30:36
Перевод: Дублированный (CineLab SoundMix)
Файл
Кодек: MPEG-4 AVC
Качество: BDRip 720p
Видео: 6133 Кбит/с, 1280x720
Звук: Русский, английский (DTS, 6 ch, 755 Кбит/с)
Субтитры: Русские, английские
Семпл

Релиз

Рип от HDWing
Релиз группы NovaLan
Аудио №1: Russian: 48 kHz, DTS, 3/2 (L,C,R,l,r) + LFE ch, ~755,00 kbps avg - Дублированный
Аудио №2: English: 48 kHz, DTS, 3/2 (L,C,R,l,r) + LFE ch, ~755,00 kbps avg - Оригинал
Субтитры: Русские, английские
Сборка StarbirS

Инфо-файл

Формат : Matroska
Версия формата : Version 4 / Version 2
Размер файла : 4,84 Гбайт
Продолжительность : 1 ч. 30 м.
Общий поток : 7642 Кбит/сек
Название фильма : The.Oranges.2011.x264.D.BDRip.(720p).NovaLan
Дата кодирования : UTC 2014-08-08 19:55:53
Программа кодирования : mkvmerge v7.1.0 ('Good Love') 64bit built on Jul 27 2014 13:06:55
Библиотека кодирования : libebml v1.3.0 + libmatroska v1.4.1
DURATION : 01:27:22.407000000
NUMBER_OF_FRAMES : 1431
NUMBER_OF_BYTES : 45733
_STATISTICS_WRITING_APP : mkvmerge v7.1.0 ('Good Love') 64bit built on Jul 27 2014 13:06:55
_STATISTICS_WRITING_DATE_UTC : 2014-08-08 19:55:53
_STATISTICS_TAGS : BPS DURATION NUMBER_OF_FRAMES NUMBER_OF_BYTES
Видео
Идентификатор : 1
Формат : AVC
Формат/Информация : Advanced Video Codec
Профиль формата : High@L4.1
Параметр CABAC формата : Да
Параметр ReFrames формата : 9 кадров
Идентификатор кодека : V_MPEG4/ISO/AVC
Продолжительность : 1 ч. 30 м.
Битрейт : 6133 Кбит/сек
Ширина : 1280 пикселей
Высота : 720 пикселей
Соотношение сторон : 16:9
Режим частоты кадров : Постоянный
Частота кадров : 23,976 кадра/сек
Цветовое пространство : YUV
Субдискретизация насыщенности : 4:2:0
Битовая глубина : 8 бит
Тип развёртки : Прогрессивная
Бит/(Пиксели*Кадры) : 0.278
Размер потока : 3,79 Гбайт (78%)
Заголовок : The.Oranges.2011.x264.D.BDRip.(720p).HDWing
Библиотека кодирования : x264 core 130 r2273 b3065e6
Настройки программы : cabac=1 / ref=9 / deblock=1:-3:-3 / analyse=0x3:0x133 / me=umh / subme=10 / psy=1 / psy_rd=1.00:0.00 / mixed_ref=1 / me_range=16 / chroma_me=1 / trellis=2 / 8x8dct=1 / cqm=0 / deadzone=21,11 / fast_pskip=1 / chroma_qp_offset=-2 / threads=6 / lookahead_threads=1 / sliced_threads=0 / nr=0 / decimate=1 / interlaced=0 / bluray_compat=0 / constrained_intra=0 / bframes=10 / b_pyramid=0 / b_adapt=2 / b_bias=0 / direct=3 / weightb=1 / open_gop=0 / weightp=2 / keyint=240 / keyint_min=23 / scenecut=40 / intra_refresh=0 / rc_lookahead=40 / rc=2pass / mbtree=1 / bitrate=6133 / ratetol=1.0 / qcomp=0.60 / qpmin=0 / qpmax=69 / qpstep=4 / cplxblur=20.0 / qblur=0.5 / ip_ratio=1.40 / aq=1:0.80
Язык : English
Default : Да
Forced : Нет
DURATION : 01:30:36.135000000
NUMBER_OF_FRAMES : 130337
NUMBER_OF_BYTES : 4165128982
_STATISTICS_WRITING_APP : mkvmerge v7.1.0 ('Good Love') 64bit built on Jul 27 2014 13:06:55
_STATISTICS_WRITING_DATE_UTC : 2014-08-08 19:55:53
_STATISTICS_TAGS : BPS DURATION NUMBER_OF_FRAMES NUMBER_OF_BYTES
Аудио #1
Идентификатор : 2
Формат : DTS
Формат/Информация : Digital Theater Systems
Режим : 16
Параметр Endianness формата : Big
Идентификатор кодека : A_DTS
Продолжительность : 1 ч. 30 м.
Вид битрейта : Постоянный
Битрейт : 755 Кбит/сек
Каналы : 6 каналов
Расположение каналов : Front: L C R, Side: L R, LFE
Частота : 48,0 КГц
Битовая глубина : 16 бит
Метод сжатия : С потерями
Размер потока : 489 Мбайт (10%)
Заголовок : Дублированный (CineLab SoundMix)
Язык : Russian
Default : Да
Forced : Нет
Аудио #2
Идентификатор : 3
Формат : DTS
Формат/Информация : Digital Theater Systems
Режим : 16
Параметр Endianness формата : Big
Идентификатор кодека : A_DTS
Продолжительность : 1 ч. 30 м.
Вид битрейта : Постоянный
Битрейт : 755 Кбит/сек
Каналы : 6 каналов
Расположение каналов : Front: L C R, Side: L R, LFE
Частота : 48,0 КГц
Битовая глубина : 16 бит
Метод сжатия : С потерями
Размер потока : 489 Мбайт (10%)
Заголовок : English
Язык : English
Default : Нет
Forced : Нет
Текст #1
Идентификатор : 4
Формат : UTF-8
Идентификатор кодека : S_TEXT/UTF8
Идентификатор кодека/Информация : UTF-8 Plain Text
Заголовок : R5
Язык : Russian
Default : Нет
Forced : Нет
Текст #2
Идентификатор : 5
Формат : UTF-8
Идентификатор кодека : S_TEXT/UTF8
Идентификатор кодека/Информация : UTF-8 Plain Text
Язык : English
Default : Нет
Forced : Нет
Меню
00:00:00.000 : :Chapter 01
00:00:56.890 : :Chapter 02
00:05:17.775 : :Chapter 03
00:10:21.829 : :Chapter 04
00:19:15.445 : :Chapter 05
00:30:40.505 : :Chapter 06
00:40:38.644 : :Chapter 07
00:59:29.774 : :Chapter 08
01:12:34.892 : :Chapter 09

Скриншоты


[Профиль] [ЛС]
Показать сообщения:    

Текущее время: Сегодня 02:43

Часовой пояс: GMT



Вы не можете начинать темы
Вы не можете отвечать на сообщения
Вы не можете редактировать свои сообщения
Вы не можете удалять свои сообщения
Вы не можете голосовать в опросах
Вы не можете прикреплять файлы к сообщениям
Вы не можете скачивать файлы