Любовный переплет / The Oranges (Джулиан Фарино / Julian Farino) [2011, США, драма, мелодрама, комедия, BDRip 720p] Dub (CineLab SoundMix) + Sub Rus + Original Eng

 
Автор Сообщение

reversefile ®

Пол:

Стаж: 4 года 5 месяцев

Сообщений: 842

Откуда: ReverseFile.org



Награды: Нет

Торрент-статистика

Создавать темы 11-Авг-2014 10:40

[Цитировать]

Любовный переплет / The Oranges- Страна: США
Жанр: драма, мелодрама, комедия
Год выпуска: 2011
Продолжительность: 01:30:32-Перевод: Профессиональный (дублированный) CineLab SoundMix - [лицензия]
Cубтитры: русские
Оригинальная аудиодорожка: английский-Режиссер: Джулиан Фарино / Julian Farino
В ролях: Хью Лори, Кэтрин Кинер, Оливер Платт, Эллисон Дженни, Алиа Шокат, Адам Броди, Лейтон Мистер, Бойд Холбрук, Тим Гини, Лукас Папаэлиас
Описание: Семьи Острофф и Уоллинг дружат между собой и живут по соседству, на Орандж Драйв, как раз напротив. Дочь-транжирка, Нина Острофф, возвращается домой на День Благодарения, после пятилетнего отсутствия, недавно порвав с женихом. Вместо того, чтобы заинтересоваться успешным сыном своих соседей, Тоби Уоллингом, что устроило бы обе семьи, она обращает внимание на его отца и лучшего друга своих родителей, Дэвида Уоллинга. Когда романтические отношения между Ниной и Дэвидом становится невозможно игнорировать, жизнь обеих семей приходит в полный беспорядок.-
IMDb: 5,9/10 от 7 428 пользователей-Качество видео: BDRip
Формат видео: MKV
Видео: 1280 x 720, 16:9, 23.976 fps, AVC, 5374 Кбит/сек
Аудио: Русский (AC-3, 448 Кбит/сек, 6 каналов, 48,0 КГц)
Аудио 2: Английский (AC-3, 448 Кбит/сек, 6 каналов, 48,0 КГц)- -

MediaInfo

Общее
Уникальный идентификатор                 : 237634890759732883336799891840650509094 (0xB2C6D0B096CFA9999D8AFBB165D4FB26)
Формат                                   : Matroska
Версия формата                           : Version 4 / Version 2
Размер файла                             : 3,97 Гбайт
Продолжительность                        : 1 ч. 30 м.
Общий поток                              : 6271 Кбит/сек
Название фильма                          : Любовный переплет / The Oranges
Дата кодирования                         : UTC 2010-02-22 21:41:31
Программа кодирования                    : mkvmerge v5.9.0 ('On The Loose') built on Dec  9 2012 15:37:01
Библиотека кодирования                   : libebml v1.3.0 + libmatroska v1.4.0
Видео
Идентификатор                            : 1
Формат                                   : AVC
Формат/Информация                        : Advanced Video Codec
Профиль формата                          : High@L4.1
Параметр CABAC формата                   : Да
Параметр ReFrames формата                : 5 кадров
Режим смешивания                         : Header stripping
Идентификатор кодека                     : V_MPEG4/ISO/AVC
Продолжительность                        : 1 ч. 30 м.
Битрейт                                  : 5374 Кбит/сек
Ширина                                   : 1280 пикселей
Высота                                   : 720 пикселей
Соотношение сторон                       : 16:9
Режим частоты кадров                     : Постоянный
Частота кадров                           : 23,976 кадра/сек
Цветовое пространство                    : YUV
Субдискретизация насыщенности            : 4:2:0
Битовая глубина                          : 8 бит
Тип развёртки                            : Прогрессивная
Бит/(Пиксели*Кадры)                      : 0.243
Размер потока                            : 3,32 Гбайт (84%)
Заголовок                                : ljubovnyj Pereplet 2011 720p BluRay x264
Библиотека кодирования                   : x264 core 129 r2245 bc13772
Настройки программы                      : cabac=1 / ref=5 / deblock=1:0:0 / analyse=0x3:0x133 / me=umh / subme=8 / psy=1 / psy_rd=1.00:0.00 / mixed_ref=1 / me_range=16 / chroma_me=1 / trellis=1 / 8x8dct=1 / cqm=0 / deadzone=21,11 / fast_pskip=0 / chroma_qp_offset=-2 / threads=12 / lookahead_threads=2 / sliced_threads=0 / nr=0 / decimate=1 / interlaced=0 / bluray_compat=0 / constrained_intra=0 / bframes=3 / b_pyramid=2 / b_adapt=1 / b_bias=0 / direct=1 / weightb=1 / open_gop=0 / weightp=2 / keyint=250 / keyint_min=23 / scenecut=40 / intra_refresh=0 / rc_lookahead=40 / rc=2pass / mbtree=1 / bitrate=5374 / ratetol=1.0 / qcomp=0.60 / qpmin=0 / qpmax=69 / qpstep=4 / cplxblur=20.0 / qblur=0.5 / ip_ratio=1.40 / aq=1:1.00
Язык                                     : English
Default                                  : Да
Forced                                   : Да
Аудио #1
Идентификатор                            : 2
Формат                                   : AC-3
Формат/Информация                        : Audio Coding 3
Расширение режима                        : CM (complete main)
Параметр Endianness формата              : Big
Режим смешивания                         : Header stripping
Идентификатор кодека                     : A_AC3
Продолжительность                        : 1 ч. 30 м.
Вид битрейта                             : Постоянный
Битрейт                                  : 448 Кбит/сек
Каналы                                   : 6 каналов
Расположение каналов                     : Front: L C R, Side: L R, LFE
Частота                                  : 48,0 КГц
Битовая глубина                          : 16 бит
Метод сжатия                             : С потерями
Размер потока                            : 290 Мбайт (7%)
Язык                                     : Russian
Default                                  : Да
Forced                                   : Да
Аудио #2
Идентификатор                            : 3
Формат                                   : AC-3
Формат/Информация                        : Audio Coding 3
Расширение режима                        : CM (complete main)
Параметр Endianness формата              : Big
Режим смешивания                         : Header stripping
Идентификатор кодека                     : A_AC3
Продолжительность                        : 1 ч. 30 м.
Вид битрейта                             : Постоянный
Битрейт                                  : 448 Кбит/сек
Каналы                                   : 6 каналов
Расположение каналов                     : Front: L C R, Side: L R, LFE
Частота                                  : 48,0 КГц
Битовая глубина                          : 16 бит
Метод сжатия                             : С потерями
Размер потока                            : 290 Мбайт (7%)
Язык                                     : English
Default                                  : Нет
Forced                                   : Нет
Текст #1
Идентификатор                            : 4
Формат                                   : UTF-8
Идентификатор кодека                     : S_TEXT/UTF8
Идентификатор кодека/Информация          : UTF-8 Plain Text
Заголовок                                : R5
Язык                                     : Russian
Default                                  : Нет
Forced                                   : Нет
Текст #2
Идентификатор                            : 5
Формат                                   : UTF-8
Идентификатор кодека                     : S_TEXT/UTF8
Идентификатор кодека/Информация          : UTF-8 Plain Text
Язык                                     : English
Default                                  : Нет
Forced                                   : Нет

Скриншоты

[Профиль] [ЛС]
Показать сообщения:    

Текущее время: Сегодня 21:34

Часовой пояс: GMT



Вы не можете начинать темы
Вы не можете отвечать на сообщения
Вы не можете редактировать свои сообщения
Вы не можете удалять свои сообщения
Вы не можете голосовать в опросах
Вы не можете прикреплять файлы к сообщениям
Вы не можете скачивать файлы