Любовницы / Mistresses (US) [02x01-07 из 13] (2014) WEB-DL 720p от NewStudio | Fox Life

 
Автор Сообщение

Белочка ®

Пол:

Стаж: 5 лет 1 месяц

Сообщений: 2089



Награды: 1 (Подробнее)

Girls (Количество: 1)
Торрент-статистика

Создавать темы 14-Окт-2014 19:09

[Цитировать]

Информация о фильме
Название: Любовницы
Оригинальное название: Mistresses
Год выхода: 2014
Жанр: Драма
Режиссер: Константин Макрис, Чери Ноулан, Дэвид Пэймер
В ролях: Рошелль Эйтс, Джесс Макаллан, Шаннин Соссамон, Корина Мессиа, Эрик Стоклин, Юнжин Ким, Алисса Милано, Эшли Ньюбро, Темина Санни, Джейден Уайт и др.
О фильме:
Американский драматический телесериал, разработанный К. Й. Стейнберг и основанный на одноименном британском телесериале 2008—2010 годов.
Провокационная и захватывающая драма о скандальной жизни сексуальной и нахальной группы из четырех подруг, каждая из которой находится в сложных и опасных отношениях с окружающими.

Содержание

01. Rebuild
02. Boundaries
03. Open House
04. Friends with Benefits
05. Playing with Fire
06. What Do You Really Want
07. Why Do Fools Fall in Love?
08. An Affair to Surrender
09. Coming Clean
10. Charades
11. Choices
12. Surprise
13. Til Death Do Us Part

MI

Общее
Уникальный идентификатор : 193292315291596250389150142355963224792 (0x916ABEED02D78B67A1651C117021A2D8)
Полное имя : Mistresses.s02.WEBDL.720p.NewStudioMistresses.s02e04.WEBDL.720p.NewStudio.TV.mkv
Формат : Matroska
Версия формата : Version 2
Размер файла : 1,42 Гбайт
Продолжительность : 43 м.
Общий поток : 4700 Кбит/сек
Дата кодирования : UTC 2014-09-23 08:06:12
Программа кодирования : mkvmerge v2.9.9 ('Tutu') built on Nov 25 2009 21:13:32
Библиотека кодирования : libebml v0.7.9 + libmatroska v0.8.1
Видео
Идентификатор : 1
Формат : AVC
Формат/Информация : Advanced Video Codec
Профиль формата : High@L3.1
Параметр CABAC формата : Нет
Параметр ReFrames формата : 2 кадра
Идентификатор кодека : V_MPEG4/ISO/AVC
Продолжительность : 43 м.
Битрейт : 4031 Кбит/сек
Ширина : 1280 пикселей
Высота : 720 пикселей
Соотношение сторон : 16:9
Режим частоты кадров : Постоянный
Частота кадров : 23,976 кадра/сек
Цветовое пространство : YUV
Субдискретизация насыщенности : 4:2:0
Битовая глубина : 8 бит
Тип развёртки : Прогрессивная
Бит/(Пиксели*Кадры) : 0.182
Размер потока : 1,21 Гбайт (86%)
Язык : English
Default : Нет
Forced : Нет
Основные цвета : BT.709
Характеристики трансфера : BT.709
Коэффициенты матрицы : BT.709
Аудио #1
Идентификатор : 2
Формат : AC-3
Формат/Информация : Audio Coding 3
Расширение режима : CM (complete main)
Параметр Endianness формата : Big
Идентификатор кодека : A_AC3
Продолжительность : 43 м.
Вид битрейта : Постоянный
Битрейт : 192 Кбит/сек
Каналы : 2 канала
Расположение каналов : Front: L R
Частота : 48,0 КГц
Битовая глубина : 16 бит
Метод сжатия : С потерями
Размер потока : 59,2 Мбайт (4%)
Язык : Russian
Default : Да
Forced : Да
Аудио #2
Идентификатор : 3
Формат : AC-3
Формат/Информация : Audio Coding 3
Расширение режима : CM (complete main)
Параметр Endianness формата : Big
Идентификатор кодека : A_AC3
Продолжительность : 43 м.
Вид битрейта : Постоянный
Битрейт : 384 Кбит/сек
Каналы : 6 каналов
Расположение каналов : Front: L C R, Side: L R, LFE
Частота : 48,0 КГц
Битовая глубина : 16 бит
Метод сжатия : С потерями
Размер потока : 118 Мбайт (8%)
Язык : English
Default : Нет
Forced : Нет

Страна: США, Великобритания
Продолжительность: ~ 00:43:00
Перевод: Профессиональный (дублированный) - Fox Life
Файл
Кодек: x264
Качество: WEB-DL 720p
Видео: MPEG-4 AVC, ~ 4000 Кбит/с, 1280x720
Звук: Русский (AC3, 2 ch, 192 Кбит/с), английский (AC3, 6 ch, 384 Кбит/с)

Скриншоты

[Профиль] [ЛС]
Показать сообщения:    

Текущее время: Сегодня 22:09

Часовой пояс: GMT



Вы не можете начинать темы
Вы не можете отвечать на сообщения
Вы не можете редактировать свои сообщения
Вы не можете удалять свои сообщения
Вы не можете голосовать в опросах
Вы не можете прикреплять файлы к сообщениям
Вы не можете скачивать файлы