Люблю тебя, чувак / I Love You, Man (Джон Гамбург / John Hamburg) [2009, США, Комедия, BDRip] Dub

 
Автор Сообщение

painkiller ®

Стаж: 2 года 3 месяца

Сообщений: 582



Награды: Нет

Торрент-статистика

Создавать темы 15-Авг-2014 10:18

[Цитировать]

Люблю тебя, чувак / I Love You, Man
«Ищу друга... Геям просьба не беспокоиться»
- Год выпуска: 2009
Выпущено: США / DreamWorks SKG
Жанр: комедия
Продолжительность: 01:44:46
Перевод: Профессиональный (полное дублирование) BD EUR
Cубтитры: нет-Режиссер:
Джон Гамбург / John Hamburg-В ролях:
Пол Радд (Peter Klaven), Джейсон Сигел (Sydney Fife), Рашида Джонс (Zooey Rice), Энди Сэмберг (Robbie Klaven), Дж.К. Симмонс (Oswald Klaven), Джейн Куртин (Joyce Klaven), Джон Фавро (Barry), Джейми Прессли (Denise), Азиз Ансари (Eugene), Лу Ферриньо (играет самого себя)-Описание:
Успешный риэлтор Питер Клэйвен наконец-то сделал предложение женщине своей мечты и тут же столкнулся с неожиданной проблемой. У него нет лучшего друга, которому можно поручить важную миссию шафера на свадьбе. После череды специфических свиданий Питер наконец-то нашёл подходящего человека, полную себе противоположность, Сиднея. Да вот только благодаря новому другу Питер понял, что жил не правильно и по-настоящему не умел веселиться… и, похоже, передумал жениться.-IMDB | КиноПоиск |-Качество: BDRip Blu-ray Disc спасибо «MaLLIeHbKa»
Формат: AVI
Видео: 704x400 (1.76:1), 23.976 fps, XviD build 73 ~1533 kbps avg, 0.23 bit/pixel
Аудио: 48 kHz, AC3 Dolby Digital, 3/2 (L,C,R,l,r) + LFE ch, ~448.00 kbps avg
-

Скриншоты

MediaInfo

General
Complete name                            : D:\Lublu_tebya_chuvak_2009_BDRip_by_Dalemake.avi
Format                                   : AVI
Format/Info                              : Audio Video Interleave
File size                                : 1.46 GiB
Duration                                 : 1h 44mn
Overall bit rate                         : 1 991 Kbps
Writing application                      : VirtualDubMod 1.5.10.3 | www.virtualdub-fr.org || (build 2550/release)
Writing library                          : VirtualDubMod build 2550/release
Video
ID                                       : 0
Format                                   : MPEG-4 Visual
Format profile                           : Advanced Simple@L5
Format settings, BVOP                    : 1
Format settings, QPel                    : No
Format settings, GMC                     : No warppoints
Format settings, Matrix                  : Custom
Codec ID                                 : XVID
Codec ID/Hint                            : XviD
Duration                                 : 1h 44mn
Bit rate                                 : 1 534 Kbps
Width                                    : 704 pixels
Height                                   : 400 pixels
Display aspect ratio                     : 16:9
Frame rate                               : 23.976 fps
Color space                              : YUV
Chroma subsampling                       : 4:2:0
Bit depth                                : 8 bits
Scan type                                : Progressive
Compression mode                         : Lossy
Bits/(Pixel*Frame)                       : 0.227
Stream size                              : 1.12 GiB (77%)
Writing library                          : XviD 73
Audio
ID                                       : 1
Format                                   : AC-3
Format/Info                              : Audio Coding 3
Mode extension                           : CM (complete main)
Format settings, Endianness              : Big
Codec ID                                 : 2000
Duration                                 : 1h 44mn
Bit rate mode                            : Constant
Bit rate                                 : 448 Kbps
Channel(s)                               : 6 channels
Channel positions                        : Front: L C R, Side: L R, LFE
Sampling rate                            : 48.0 KHz
Bit depth                                : 16 bits
Compression mode                         : Lossy
Stream size                              : 336 MiB (22%)
Alignment                                : Split accross interleaves
Interleave, duration                     : 42 ms (1.00 video frame)
Interleave, preload duration             : 500 ms
-
[Профиль] [ЛС]

Создавать темы 06-Авг-2015 23:10 (спустя 11 месяцев 22 дня)

Топик был перенесен из форума Фильмы до 2014 года в форум Фильмы до 2012 года
sergej644
 

Создавать темы 12-Июн-2016 08:48 (спустя 1 год 9 месяцев)

Топик был перенесен из форума Фильмы 2011 года в форум Фильмы 2009 года
Russian Mafia
 
Кто просматривает тему:

Форум Тема Автор Размер
Rock (Рок) Radio Я - Я Люблю Хардкор [Maxi-Single] - 2015, MP3, 320 kbps достали все 76 MB
Сhanson (Шансон) Феликс Луцкий – Я люблю тебя - 2014, MP3, 320 kbps Magnat 106 MB
Фильмы 2011 года P.S. Я люблю тебя / P.S. I Love You (Ричард ЛаГравенес / Richard LaGravenese) [2007, США, драма, мелодрама, экранизация, BDRip] AVO (Немахов) TorrentFilm 2.06 GB
Фильмы 2009 года Всё, что я люблю / All That I Love / Wszystko, co kocham (Яцек Борцух / Jacek Borcuch) [2009, Польша, драма, мелодрама, DVDRip] DVO (Макс Коллапс и Анна Полевская (RealFake)) painkiller 1.37 GB
Кулинария Газета | Добрые советы. Люблю готовить! №5 (май 2015) [PDF] достали все 23 MB
Кулинария Газета | Добрые советы. Люблю готовить! №7 (июль 2015) [PDF] достали все 16 MB
Фильмы 2011 года Кажется, я люблю свою жену / I Think I Love My Wife (Крис Рок / Chris Rock) [2007, США, Индия, комедия, мелодрама, WEB-DLRip] MVO (1 канал) + Original Eng painkiller 1.46 GB
Фильмы (HD DVD, Blu-ray и BDRemux) Люблю твою жену / The Right Kind of Wrong (2013) BDRemux 1080р от ExKinoRay | Чистый звук Белочка 15.7 GB
Показать сообщения:    

Текущее время: Сегодня 06:05

Часовой пояс: GMT



Вы не можете начинать темы
Вы не можете отвечать на сообщения
Вы не можете редактировать свои сообщения
Вы не можете удалять свои сообщения
Вы не можете голосовать в опросах
Вы не можете прикреплять файлы к сообщениям
Вы не можете скачивать файлы