Любите Куперов / Love the Coopers (2015) BDRip 1080p | iTunes

 
Автор Сообщение

достали все ®

Пол:

Стаж: 1 год 8 месяцев

Сообщений: 6630



Награды: 12 (Подробнее)

Mega Seeder 2 (Количество: 1) Mega Releaser 3 (Количество: 1) Mega Seeder 3 (Количество: 1)
Торрент-статистика

Создавать темы 03-Фев-2016 09:13

[Цитировать]

Информация о фильме
Название: Любите Куперов
Оригинальное название: Love the Coopers
Год выпуска: 2015
Страна: США
Жанр: комедия-Перевод: Дубляж - [iTunes]
Субтитры: английские (Full), английские (SDH)
Продолжительность: 01:47:06-Режиссер: Джесси Нельсон
В ролях: Дайан Китон (Charlotte), Джон Гудман (Sam), Эд Хелмс (Hank), Алекс Борштейн (Angie), Тимоти Чаламет (Charlie), Максвелл Симкинс (Bo), Блейк Баумгартнер (Madison), Аманда Сайфред (Ruby), Алан Аркин (Bucky), Дэн Амбойер (Handsome Young Man at Diner), Мариса Томей (Emma), Scott Garan (Department Store Security Guard)-Описание:
Феерическая рождественская комедия о том, что бывает, когда на праздник собираются представители четырех поколений одной большой семьи...-Рейтинг:

MPAA: PG-13 - Детям до 13 лет просмотр не желателен-Качество: BDRip 1080p
Формат: MKV
Видео: AVC, 1920x800 (2.40:1), 8213 kbps, 23,976 fps, 0,223 bpp
Аудио №1: русский / AC3 / 5.1 / 48 kHz / 384 kbps / 16 bit ||
Аудио №2: английский / DTS / 5.1 / 48 kHz / 1510 kbps / 24 bit
Навигация по главам: есть-Релиз от: by schultz

ОтчетМедиаИнфо

General
Unique ID : 202858453165437410732373278006307940549 (0x989D1DEFEEE2317EB0BEF98443A368C5)
Complete name : D:downloadLOVE_THE_COOPERS.2015.BDRip 1080p by schultz R.G.Resident.mkv
Format : Matroska
Format version : Version 4 / Version 2
File size : 7.56 GiB
Duration : 1h 47mn
Overall bit rate : 10.1 Mbps
Encoded date : UTC 2016-02-03 03:44:03
Writing application : mkvmerge v6.7.0 ('Back to the Ground') 64bit built on Jan 8 2014 15:10:52
Writing library : libebml v1.3.0 + libmatroska v1.4.1
DURATION : 01:47:06.475000000
NUMBER_OF_FRAMES : 602482
NUMBER_OF_BYTES : 1212193784
_STATISTICS_WRITING_APP : mkvmerge v8.3.0 ('Over the Horizon') 64bit
_STATISTICS_WRITING_DATE_UTC : 2016-02-01 19:23:22
_STATISTICS_TAGS : BPS DURATION NUMBER_OF_FRAMES NUMBER_OF_BYTES
Video
ID : 1
Format : AVC
Format/Info : Advanced Video Codec
Format profile : High@L4.1
Format settings, CABAC : Yes
Format settings, ReFrames : 5 frames
Codec ID : V_MPEG4/ISO/AVC
Duration : 1h 47mn
Bit rate : 8 213 Kbps
Width : 1 920 pixels
Height : 800 pixels
Display aspect ratio : 2.40:1
Frame rate : 23.976 fps
Color space : YUV
Chroma subsampling : 4:2:0
Bit depth : 8 bits
Scan type : Progressive
Bits/(Pixel*Frame) : 0.223
Stream size : 5.99 GiB (79%)
Writing library : x264 core 146 r2538 121396c
Encoding settings : cabac=1 / ref=5 / deblock=1:-3:-3 / analyse=0x3:0x113 / me=umh / subme=11 / psy=1 / psy_rd=1.00:0.00 / mixed_ref=1 / me_range=48 / chroma_me=1 / trellis=2 / 8x8dct=1 / cqm=0 / deadzone=21,11 / fast_pskip=0 / chroma_qp_offset=-2 / threads=12 / lookahead_threads=2 / sliced_threads=0 / nr=0 / decimate=1 / interlaced=0 / bluray_compat=0 / constrained_intra=0 / bframes=9 / b_pyramid=2 / b_adapt=2 / b_bias=0 / direct=3 / weightb=1 / open_gop=0 / weightp=2 / keyint=240 / keyint_min=23 / scenecut=40 / intra_refresh=0 / rc_lookahead=40 / rc=2pass / mbtree=1 / bitrate=8213 / ratetol=1.0 / qcomp=0.60 / qpmin=0 / qpmax=69 / qpstep=4 / cplxblur=20.0 / qblur=0.5 / vbv_maxrate=14000 / vbv_bufsize=14000 / nal_hrd=none / filler=0 / ip_ratio=1.40 / aq=1:1.00
Language : English
Default : Yes
Forced : No
Audio #1
ID : 2
Format : AC-3
Format/Info : Audio Coding 3
Mode extension : CM (complete main)
Codec ID : A_AC3
Duration : 1h 47mn
Bit rate mode : Constant
Bit rate : 384 Kbps
Channel(s) : 6 channels
Channel positions : Front: L C R, Side: L R, LFE
Sampling rate : 48.0 KHz
Bit depth : 16 bits
Compression mode : Lossy
Stream size : 294 MiB (4%)
Language : Russian
Default : Yes
Forced : No
Audio #2
ID : 3
Format : DTS
Format/Info : Digital Theater Systems
Codec ID : A_DTS
Duration : 1h 47mn
Bit rate mode : Constant
Bit rate : 1 510 Kbps
Channel(s) : 6 channels
Channel positions : Front: L C R, Side: L R, LFE
Sampling rate : 48.0 KHz
Bit depth : 24 bits
Compression mode : Lossy
Stream size : 1.13 GiB (15%)
Language : English
Default : No
Forced : No
Text #1
ID : 4
Format : UTF-8
Codec ID : S_TEXT/UTF8
Codec ID/Info : UTF-8 Plain Text
Title : Full
Language : English
Default : No
Forced : No
Text #2
ID : 5
Format : UTF-8
Codec ID : S_TEXT/UTF8
Codec ID/Info : UTF-8 Plain Text
Title : SDH
Language : English
Default : No
Forced : No
Menu
00:00:00.000 : en:00:00:00.000
00:08:00.980 : en:00:08:00.980
00:15:39.480 : en:00:15:39.480
00:25:04.336 : en:00:25:04.336
00:31:57.290 : en:00:31:57.290
00:37:10.228 : en:00:37:10.228
00:42:54.280 : en:00:42:54.280
00:51:20.953 : en:00:51:20.953
00:56:59.499 : en:00:56:59.499
01:01:31.187 : en:01:01:31.187
01:08:51.210 : en:01:08:51.210
01:13:29.739 : en:01:13:29.739
01:21:34.848 : en:01:21:34.848
01:27:21.778 : en:01:27:21.778
01:33:52.001 : en:01:33:52.001
01:38:46.504 : en:01:38:46.504

Скриншоты

[Профиль] [ЛС]
Показать сообщения:    

Текущее время: Сегодня 14:07

Часовой пояс: GMT



Вы не можете начинать темы
Вы не можете отвечать на сообщения
Вы не можете редактировать свои сообщения
Вы не можете удалять свои сообщения
Вы не можете голосовать в опросах
Вы не можете прикреплять файлы к сообщениям
Вы не можете скачивать файлы