Львиная мафия / Жизнь одного прайда / Lion Gangland (Джаред Липворт / Jared Lipworth) [2014, Документальный, HDTV 1080i]

 
Автор Сообщение

TorrentFilm ®

Пол:

Стаж: 2 года

Сообщений: 7741



Награды: Нет

Торрент-статистика

Создавать темы 25-Фев-2015 00:02

[Цитировать]

Львиная мафия
/ Жизнь одного прайда /

Lion Gangland
-- Год выпуска: 2014
Страна: США
Жанр: Документальный
Продолжительность: 00:43:53
Перевод: Студийный (одноголосый закадровый)
Доп. инфо о переводе: студия "ВЕЛЕС"
Русские субтитры: нет
Режиссер: Джаред Липворт / Jared Lipworth
Описание: В отдаленном уголке Серенгети уникальный львиный прайд живёт в условиях жары, недостатка воды и пищи и рядом с опасной группировкой соперников.
Тип релиза: HDTV 1080i
Контейнер: TS
Видео кодек: H.264
Аудио кодек: MP2
Видео: MPEG4 Video (H.264), 1920x1080, 16:9, ~8843 kbps, 25 fps
Аудио RUS: MP2, 192 Кбит/с, 48 kHz, 2 ch
Аудио ENG: MP2, 192 Кбит/с, 48 kHz, 2 ch

MediaInfo

GeneralID : 1 (0x1)Complete name : ...\Львиная мафия\Lion gangland (Rus, Eng, HDTV-1080i, h264, MP2) [2014].tsFormat : MPEG-TSFile size : 2.98 GiBDuration : 43mn 53sOverall bit rate mode : VariableOverall bit rate : 9 711 Kbps
VideoID : 4113 (0x1011)Menu ID : 1 (0x1)Format : AVCFormat/Info : Advanced Video CodecFormat profile : High@L4.0Format settings, CABAC : YesFormat settings, ReFrames : 4 framesCodec ID : 27Duration : 43mn 53sBit rate : 8 843 KbpsWidth : 1 920 pixelsHeight : 1 080 pixelsDisplay aspect ratio : 16:9Frame rate : 25.000 fpsStandard : ComponentColor space : YUVChroma subsampling : 4:2:0Bit depth : 8 bitsScan type : InterlacedScan order : Top Field FirstBits/(Pixel*Frame) : 0.171Stream size : 2.71 GiB (91%)Color primaries : BT.709Transfer characteristics : BT.709Matrix coefficients : BT.709Color range : Limited
Audio #1ID : 4352 (0x1100)Menu ID : 1 (0x1)Format : MPEG AudioFormat version : Version 1Format profile : Layer 2Codec ID : 3Duration : 43mn 53sBit rate mode : ConstantBit rate : 192 KbpsChannel(s) : 2 channelsSampling rate : 48.0 KHzCompression mode : LossyDelay relative to video : -40msStream size : 60.3 MiB (2%)Language : English
Audio #2ID : 4353 (0x1101)Menu ID : 1 (0x1)Format : MPEG AudioFormat version : Version 1Format profile : Layer 2Codec ID : 3Duration : 43mn 53sBit rate mode : ConstantBit rate : 192 KbpsChannel(s) : 2 channelsSampling rate : 48.0 KHzCompression mode : LossyDelay relative to video : -40msStream size : 60.3 MiB (2%)Language : English
[Профиль] [ЛС]
Показать сообщения:    

Текущее время: Сегодня 16:37

Часовой пояс: GMT



Вы не можете начинать темы
Вы не можете отвечать на сообщения
Вы не можете редактировать свои сообщения
Вы не можете удалять свои сообщения
Вы не можете голосовать в опросах
Вы не можете прикреплять файлы к сообщениям
Вы не можете скачивать файлы