Лыжные гонки. Кубок Мира 2014-2015. Tour De Ski. Оберстдорф (Германия). Женщины. Гонка преследования. Классика / Eurosport HD (Русский Only) [04.01.2015, Лыжные гонки, HDTV, 1080i]

 
Автор Сообщение

sergej644 ®

Пол:

Стаж: 4 года 11 месяцев

Сообщений: 6041

Откуда: Soviet Union



Награды: Нет

Торрент-статистика

Создавать темы 04-Янв-2015 12:15

[Цитировать]

Лыжные гонки. Кубок Мира 2014-2015. Tour De Ski. Оберстдорф (Германия). Женщины. Гонка преследования. Классика
Вид спорта: Лыжные гонки
Комментарий: Профессиональный
Язык комментариев: Русский (Курдюков)-Описание: Лыжные гонки. Кубок Мира 2014-2015. Tour De Ski. Оберстдорф (Германия). Женщины. Гонка преследования. Классика.-Автор рипа: sanchez2011
Качество: HDTV
Формат: TS
Видео кодек: AVC
Аудио кодек: MP2
Видео: MPEG4 Video (H264) 1920x1080 (16:9) 25fps 9139kbps
Аудио: MPEG Audio 48000Hz stereo 192kbps

Скриншоты

Продолжительность

Продолжительность: 00:38:46

MediaInfo

General
ID                                       : 1 (0x1)
Complete name                            : E:\Лыжные гонки. Кубок Мира 2014-2015. Tour De Ski. Оберстдорф (Германия). Женщины. Гонка преследования. Классика.ts
Format                                   : MPEG-TS
File size                                : 2.66 GiB
Duration                                 : 38mn 46s
Overall bit rate mode                    : Variable
Overall bit rate                         : 9 817 Kbps
Video
ID                                       : 513 (0x201)
Menu ID                                  : 1 (0x1)
Format                                   : AVC
Format/Info                              : Advanced Video Codec
Format profile                           : High@L4.0
Format settings, CABAC                   : Yes
Format settings, ReFrames                : 4 frames
Codec ID                                 : 27
Duration                                 : 38mn 46s
Bit rate                                 : 9 139 Kbps
Width                                    : 1 920 pixels
Height                                   : 1 080 pixels
Display aspect ratio                     : 16:9
Frame rate                               : 25.000 fps
Color space                              : YUV
Chroma subsampling                       : 4:2:0
Bit depth                                : 8 bits
Scan type                                : MBAFF
Bits/(Pixel*Frame)                       : 0.176
Stream size                              : 2.47 GiB (93%)
Color primaries                          : BT.709
Transfer characteristics                 : BT.709
Matrix coefficients                      : BT.709
Audio
ID                                       : 514 (0x202)
Menu ID                                  : 1 (0x1)
Format                                   : MPEG Audio
Format version                           : Version 1
Format profile                           : Layer 2
Codec ID                                 : 3
Duration                                 : 38mn 46s
Bit rate mode                            : Constant
Bit rate                                 : 192 Kbps
Channel(s)                               : 2 channels
Sampling rate                            : 48.0 KHz
Compression mode                         : Lossy
Stream size                              : 53.2 MiB (2%)
Language                                 : Russian

Результаты

Результаты
[Профиль] [ЛС]

Создавать темы 02-Авг-2015 23:23 (спустя 6 месяцев 29 дней)

Топик был перенесен из форума Спортивные фильмы и передачи в форум разное
sergej644
 
Показать сообщения:    

Текущее время: Сегодня 14:45

Часовой пояс: GMT



Вы не можете начинать темы
Вы не можете отвечать на сообщения
Вы не можете редактировать свои сообщения
Вы не можете удалять свои сообщения
Вы не можете голосовать в опросах
Вы не можете прикреплять файлы к сообщениям
Вы не можете скачивать файлы