Лыжные гонки. Кубок Мира 2014-2015. Tour De Ski. Валь Мюстаир (Швейцария). М, Ж. Спринт 1,4 км [06.01] (2015) HDTVRip

 
Автор Сообщение

К@питан ®

Пол:

Стаж: 5 лет 6 месяцев

Сообщений: 6090

Откуда: Soviet Union



Награды: Нет

Торрент-статистика

Создавать темы 06-Янв-2015 23:29

[Цитировать]

Лыжные гонки. Кубок Мира 2014-2015. Tour De Ski. Валь Мюстаир (Швейцария). Мужчины, Женщины. Спринт 1,4 км
Вид спорта: Лыжные гонки
Комментарий: Профессиональный
Язык комментариев: Русский (Курдюков)-Описание: Лыжные гонки. Кубок Мира 2014-2015. Tour De Ski. Валь Мюстаир (Швейцария). Мужчины, Женщины. Спринт 1,4 км. 1/4, 1/2 и финалы.-Автор рипа: sanchez2011
Качество: HDTVRip
Формат: MKV
Видео кодек: AVC
Аудио кодек: MP3
Видео: MPEG4 Video (H264) 704x400 (16:9) 25fps 1500kbps
Аудио: MPEG Audio Layer 3 48000Hz stereo 128kbps

Скриншоты

Продолжительность

Продолжительность: 01:43:23

MediaInfo

General
Unique ID : 323064104227749764700114173237794084819 (0xF30BE21B49CD3A67941C31D2518297D3)
Complete name : E:Лыжные гонки. Кубок Мира 2014-2015. Tour De Ski. Валь Мустар (Швейцария). Мужчины, Женщины. Спринт 1,4 км.mkv
Format : Matroska
Format version : Version 2
File size : 1.18 GiB
Duration : 1h 43mn
Overall bit rate : 1 632 Kbps
Writing application : XviD4PSP 6.0 / 53.6.0
Writing library : XviD4PSP 6.0 / 53.6.0
Video
ID : 1
Format : AVC
Format/Info : Advanced Video Codec
Format profile : High@L4.1
Format settings, CABAC : Yes
Format settings, ReFrames : 3 frames
Codec ID : V_MPEG4/ISO/AVC
Duration : 1h 43mn
Bit rate : 1 500 Kbps
Width : 704 pixels
Height : 400 pixels
Display aspect ratio : 16:9
Frame rate mode : Constant
Frame rate : 25.000 fps
Color space : YUV
Chroma subsampling : 4:2:0
Bit depth : 8 bits
Scan type : Progressive
Bits/(Pixel*Frame) : 0.213
Stream size : 1.06 GiB (90%)
Writing library : x264 core 116 r2019M 9cc407d
Encoding settings : cabac=1 / ref=3 / deblock=1:0:0 / analyse=0x3:0x133 / me=hex / subme=7 / psy=1 / psy_rd=1.00:0.20 / mixed_ref=1 / me_range=16 / chroma_me=1 / trellis=1 / 8x8dct=1 / cqm=0 / deadzone=21,11 / fast_pskip=1 / chroma_qp_offset=-3 / threads=8 / sliced_threads=0 / nr=0 / decimate=1 / interlaced=0 / bluray_compat=0 / constrained_intra=0 / bframes=3 / b_pyramid=1 / b_adapt=2 / b_bias=0 / direct=3 / weightb=1 / open_gop=0 / weightp=2 / keyint=250 / keyint_min=25 / scenecut=40 / intra_refresh=0 / rc_lookahead=40 / rc=abr / mbtree=1 / bitrate=1500 / ratetol=1.0 / qcomp=0.60 / qpmin=10 / qpmax=51 / qpstep=4 / ip_ratio=1.40 / aq=1:1.00
Default : Yes
Forced : No
Audio
ID : 2
Format : MPEG Audio
Format version : Version 1
Format profile : Layer 3
Mode : Joint stereo
Mode extension : MS Stereo
Codec ID : A_MPEG/L3
Codec ID/Hint : MP3
Duration : 1h 43mn
Bit rate mode : Constant
Bit rate : 128 Kbps
Channel(s) : 2 channels
Sampling rate : 48.0 KHz
Compression mode : Lossy
Stream size : 94.7 MiB (8%)
Writing library : LAME3.98.2
Default : Yes
Forced : No

Результат и Статистика

Результаты
[Профиль] [ЛС]

Создавать темы 02-Авг-2015 23:23 (спустя 6 месяцев 26 дней)

Топик был перенесен из форума Спортивные фильмы и передачи в форум разное
sergej644
 
Кто просматривает тему:

Показать сообщения:    

Текущее время: Сегодня 00:15

Часовой пояс: GMT



Вы не можете начинать темы
Вы не можете отвечать на сообщения
Вы не можете редактировать свои сообщения
Вы не можете удалять свои сообщения
Вы не можете голосовать в опросах
Вы не можете прикреплять файлы к сообщениям
Вы не можете скачивать файлы