Лучший аромат в мире 2 / Dünyanin En Güzel Kokusu 2 (2017) WEBRip 1080p | GreenРай Studio

 
Автор Сообщение

BOSS ®

Пол:

Стаж: 4 года

Сообщений: 12092

Откуда: ODESSA



Награды: 22 (Подробнее)

Mega Seeder 4 (Количество: 1) Top Releaser 3 (Количество: 1) За внесенный вклад в развитие сайта (Количество: 1)
Торрент-статистика

Создавать темы 08-Июл-2018 05:19

[Цитировать]

Информация о фильме
Год выхода: 2017
Наименование: Лучший аромат в мире 2
Оригинальное наименование: Dünyanin En Güzel Kokusu 2
Страна: Турция
Жанр: драма, мелодрама
Режиссер постановщик: Мустафа Угур Ягчиоглу
В главных ролях: Рыза Коджаоглу, Туба Унсал, Бестемсу Оздемир, Бурак Алтай, Эге Айдан, Есра Русан, Биллур Ильмаз
О фильме: После смерти Дерьи, Хакан продолжает жить только ради их общей дочери. Однажды он встречает Джандан, у которой своя душевная боль. Смогут ли они исцелить раны друг друга?

Файл
Качество: WEBRip 1080p
Видео данные: MKV, 1920x800 (2.40:1), 23.976 fps, 4447 Кбит/с
Аудио данные: AAC, 2 ch, 192 Кбит/с
Перевод: Любительский многоголосый (GreenРай Studio)
Продолжительность: 01:34:03

Медиаинфо

General
Unique ID : 85057813625465080741060457471105376653 (0x3FFD89FDA4AD781B9679E46418B5218D)
Complete name : E:ГРИНРАЙDunyanin.En.Guzel.Kokusu 2.2017.P.WEB-DL.1080p.mkv
Format : Matroska
Format version : Version 4 / Version 2
File size : 3.05 GiB
Duration : 1 h 34 min
Overall bit rate : 4 639 kb/s
Encoded date : UTC 2018-07-07 11:03:25
Writing application : mkvmerge v21.0.0 ('Tardigrades Will Inherit The Earth') 64-bit
Writing library : libebml v1.3.5 + libmatroska v1.4.8
Video
ID : 1
Format : AVC
Format/Info : Advanced Video Codec
Format profile : High@L4
Format settings : CABAC / 1 Ref Frames
Format settings, CABAC : Yes
Format settings, RefFrames : 1 frame
Format settings, GOP : M=1, N=30
Codec ID : V_MPEG4/ISO/AVC
Duration : 1 h 34 min
Bit rate : 4 447 kb/s
Width : 1 920 pixels
Height : 800 pixels
Display aspect ratio : 2.40:1
Frame rate mode : Constant
Frame rate : 23.976 (24000/1001) FPS
Color space : YUV
Chroma subsampling : 4:2:0
Bit depth : 8 bits
Scan type : Progressive
Bits/(Pixel*Frame) : 0.121
Stream size : 2.92 GiB (96%)
Language : English
Default : Yes
Forced : No
Audio
ID : 2
Format : AAC
Format/Info : Advanced Audio Codec
Format profile : LC
Codec ID : A_AAC-2
Duration : 1 h 34 min
Bit rate : 192 kb/s
Channel(s) : 2 channels
Channel positions : Front: L R
Sampling rate : 48.0 kHz
Frame rate : 46.875 FPS (1024 SPF)
Compression mode : Lossy
Stream size : 127 MiB (4%)
Language : English
Default : Yes
Forced : No
Внимание, имеется видео и аудио реклама от спонсора показа

Скриншоты

Релиз от:
[Профиль] [ЛС]
Показать сообщения:    

Текущее время: Сегодня 23:48

Часовой пояс: GMT



Вы не можете начинать темы
Вы не можете отвечать на сообщения
Вы не можете редактировать свои сообщения
Вы не можете удалять свои сообщения
Вы не можете голосовать в опросах
Вы не можете прикреплять файлы к сообщениям
Вы не можете скачивать файлы