Лучшие кошки / В мире больших кошек / Top Cats (Фил Коулс / Phil Coles) [2014, Документальный, HDTVRip 720p]

 
Автор Сообщение

TorrentFilm ®

Пол:

Стаж: 2 года

Сообщений: 7741



Награды: Нет

Торрент-статистика

Создавать темы 21-Июн-2015 00:08

[Цитировать]

Лучшие кошки / В мире больших кошек
Top Cats


Год выпуска: 2014
Страна: США
Жанр: Документальный
Продолжительность: 00:43:59
Перевод: Профессиональный (дублированный)
Доп. инфо о переводе: Студия "Велес" (Олег Белов)
Режиссер: Фил Коулс / Phil Coles
Описание: От спринта гепарда до битвы ягуара с кайманом, мы увидим самые удивительные моменты из жизни больших кошек.
Тип релиза: HDTVRip 720p
Контейнер: MKV
Видео: H.264, 1280x720 (16:9), ~5000 Kbps, 25 fps
Аудио RUS: MP2, 192 Кбит/с, 48 kHz, 2 ch
Аудио ENG: MP2, 192 Кбит/с, 48 kHz, 2 ch


Исходник: HDTV1080i спасибо LeXa 84

x264

avs [info]: 1280x720p 1:1 @ 25/1 fps (cfr)
x264 [info]: using SAR=1/1
x264 [warning]: DPB size (16 frames, 57600 mbs) > level limit (9 frames, 32768 mbs)
x264 [info]: using cpu capabilities: MMX2 SSE2Fast SSSE3 SSE4.2 AVX
x264 [info]: profile High, level 4.1
x264 [info]: frame I:47 Avg QP:11.62 size:314179
x264 [info]: frame P:503 Avg QP:19.26 size: 54535
x264 [info]: frame B:2000 Avg QP:22.91 size: 10666
x264 [info]: consecutive B-frames: 3.1% 4.0% 8.2% 30.1% 5.9% 15.8% 1.4% 0.9% 0.7% 2.7% 1.7% 1.4% 2.5% 1.1% 1.8% 0.6% 18.0%
x264 [info]: mb I I16..4: 9.9% 57.1% 33.0%
x264 [info]: mb P I16..4: 1.4% 17.4% 2.4% P16..4: 27.2% 21.6% 12.9% 0.0% 0.0% skip:17.0%
x264 [info]: mb B I16..4: 0.1% 1.4% 0.3% B16..8: 20.5% 8.3% 2.7% direct: 6.8% skip:60.0% L0:35.7% L1:42.7% BI:21.6%
x264 [info]: 8x8 transform intra:75.1% inter:59.5%
x264 [info]: coded y,uvDC,uvAC intra: 88.6% 92.1% 70.9% inter: 22.2% 23.7% 3.4%
x264 [info]: i16 v,h,dc,p: 18% 23% 23% 36%
x264 [info]: i8 v,h,dc,ddl,ddr,vr,hd,vl,hu: 11% 20% 8% 7% 9% 9% 12% 10% 15%
x264 [info]: i4 v,h,dc,ddl,ddr,vr,hd,vl,hu: 14% 18% 7% 7% 10% 10% 11% 10% 13%
x264 [info]: i8c dc,h,v,p: 42% 26% 17% 15%
x264 [info]: Weighted P-Frames: Y:3.2% UV:2.0%
x264 [info]: ref P L0: 59.6% 16.3% 13.8% 3.0% 2.3% 1.4% 1.1% 0.6% 0.5% 0.4% 0.3% 0.2% 0.2% 0.1% 0.1% 0.1%
x264 [info]: ref B L0: 90.1% 6.0% 1.6% 0.7% 0.5% 0.3% 0.2% 0.1% 0.1% 0.1% 0.1% 0.1% 0.0% 0.0% 0.0%
x264 [info]: ref B L1: 97.1% 2.9%
x264 [info]: kb/s:4982.65
x264 [total]: encoded 2550 frames, 8.45 fps, 4982.65 kb/s

MediaInfo

GeneralUnique ID : 243304274845702181069628175228040713811 (0xB70AB2E7FB96221391B8CECEF7251653)Complete name : D:\Видео\Флора и фауна\Top Cats HDTVRip-720p.2014.mkvFormat : MatroskaFormat version : Version 4 / Version 2File size : 1.66 GiBDuration : 43mn 59sOverall bit rate : 5 386 KbpsEncoded date : UTC 2015-06-17 09:10:29Writing application : mkvmerge v7.8.0 ('River Man') 64bit built on Mar 27 2015 16:31:37Writing library : libebml v1.3.1 + libmatroska v1.4.2DURATION : 00:43:59.496000000NUMBER_OF_FRAMES : 109979NUMBER_OF_BYTES : 63347904_STATISTICS_WRITING_APP : mkvmerge v7.8.0 ('River Man') 64bit built on Mar 27 2015 16:31:37_STATISTICS_WRITING_DATE_UTC : 2015-06-17 09:10:29_STATISTICS_TAGS : BPS DURATION NUMBER_OF_FRAMES NUMBER_OF_BYTES
VideoID : 1Format : AVCFormat/Info : Advanced Video CodecFormat profile : High@L4.1Format settings, CABAC : YesFormat settings, ReFrames : 7 framesCodec ID : V_MPEG4/ISO/AVCDuration : 43mn 59sBit rate : 5 000 KbpsWidth : 1 280 pixelsHeight : 720 pixelsDisplay aspect ratio : 16:9Frame rate mode : ConstantFrame rate : 25.000 fpsColor space : YUVChroma subsampling : 4:2:0Bit depth : 8 bitsScan type : ProgressiveBits/(Pixel*Frame) : 0.217Stream size : 1.50 GiB (91%)Writing library : x264 core 146 r2538 121396cEncoding settings : cabac=1 / ref=7 / deblock=1:0:0 / analyse=0x3:0x113 / me=umh / subme=9 / psy=1 / psy_rd=1.05:0.15 / mixed_ref=1 / me_range=32 / chroma_me=1 / trellis=2 / 8x8dct=1 / cqm=0 / deadzone=21,11 / fast_pskip=1 / chroma_qp_offset=-3 / threads=6 / lookahead_threads=1 / sliced_threads=0 / nr=0 / decimate=1 / interlaced=0 / bluray_compat=0 / constrained_intra=0 / bframes=8 / b_pyramid=2 / b_adapt=2 / b_bias=0 / direct=1 / weightb=1 / open_gop=0 / weightp=2 / keyint=250 / keyint_min=25 / scenecut=40 / intra_refresh=0 / rc_lookahead=60 / rc=2pass / mbtree=1 / bitrate=5000 / ratetol=1.0 / qcomp=0.60 / qpmin=0 / qpmax=69 / qpstep=4 / cplxblur=20.0 / qblur=0.5 / vbv_maxrate=14000 / vbv_bufsize=14000 / nal_hrd=none / filler=0 / ip_ratio=1.40 / aq=1:1.00Default : YesForced : No
Audio #1ID : 2Format : MPEG AudioFormat version : Version 1Format profile : Layer 2Codec ID : A_MPEG/L2Codec ID/Hint : MP2Duration : 43mn 59sBit rate mode : ConstantBit rate : 192 KbpsChannel(s) : 2 channelsSampling rate : 48.0 KHzCompression mode : LossyStream size : 60.4 MiB (4%)Default : YesForced : No
Audio #2ID : 3Format : MPEG AudioFormat version : Version 1Format profile : Layer 2Codec ID : A_MPEG/L2Codec ID/Hint : MP2Duration : 43mn 59sBit rate mode : ConstantBit rate : 192 KbpsChannel(s) : 2 channelsSampling rate : 48.0 KHzCompression mode : LossyStream size : 60.4 MiB (4%)Default : NoForced : No

Скриншоты

[Профиль] [ЛС]
Показать сообщения:    

Текущее время: Сегодня 18:37

Часовой пояс: GMT



Вы не можете начинать темы
Вы не можете отвечать на сообщения
Вы не можете редактировать свои сообщения
Вы не можете удалять свои сообщения
Вы не можете голосовать в опросах
Вы не можете прикреплять файлы к сообщениям
Вы не можете скачивать файлы