Лучше звоните Солу / Better Call Saul (Сезон 2, Серия 1-10 из 10) (Колин Бакси, Адам Бернштейн, Винс Гиллиган) [2016 , Драма, комедия, криминал , WEB-DLRip 1080p] [Kravec , LostFilm , NewStudio , Jaskier , English] + [Subs Rus , Eng]

 
Автор Сообщение

Враг Нароода ®

Стаж: 1 год 8 месяцев

Сообщений: 110



Награды: 2 (Подробнее)

Mega Seeder 1 (Количество: 1) За внесенный вклад в развитие сайта (Количество: 1)
Торрент-статистика

Создавать темы 12-Мар-2016 11:19

[Цитировать]

-- --Лучше звоните Солу / Better Call Saul Сезон 2, Серия 1-10 из 10 -- --Год выпуска: 2016
Выпущено: США, High Bridge Productions, Crystal Diner Productions, Gran Via Productions
Жанр: Драма, комедия, криминал
Продолжительность: 00:46:00
Сезон:2
Серия: 1-10
Количество серий в сезоне: 10
Озвучка 1: Профессиональный многоголосый - Kravec -Русский
Озвучка 2: Профессиональный многоголосый - LostFilm -Русский
Озвучка 3: Профессиональный многоголосый - NewStudio -Русский
Озвучка 4: Профессиональный многоголосый - Jaskier -Русский
Озвучка 5: Профессиональный многоголосый - Английский - Оригинал
Субтитры: : Русские,Английские -- -Режиссер: Винс Гиллиган, Колин Бакси, Адам Бернстайн, Мишель Макларен--Сценаристы::Питер Гулд, Винс Гиллиган--В ролях: Боб Оденкерк (Джимми Макгил/Сол Гудман), Ри Сихорн (Ким Векслер), Патрик Фабиан (Говард Хэмлин), Майкл МакКин (Чак Макгил), Джонатан Бэнкс (Майк Эрмантраут), Майкл Мэндо (Начо Варга), Майкл Бофшевер (мистер Пинкман)-- «Лучше звоните Солу» — спин-офф и одновременно приквел культового сериала «Во все тяжкие» (Breaking Bad), являющийся абсолютно самостоятельным по стилю, сюжету и настроению проектом. С оригиналом его роднит одно очень важное качество — высочайший уровень подачи материала. В своем новом телешоу Винс Гиллиган и Питер Гулд приготовили для зрителей увлекательную историю о том, как мелкий и не очень удачливый юрист Джимми Макгил (Боб Оденкерк) стал Солом Гудманом, успешным защитником самых отъявленных подонков (и не только) Нью-Мексико. «Лучше звоните Солу» также порадует вас целой галереей запоминающихся персонажей, лихо закрученными сюжетами и неожиданными встречами со знакомыми героями из вселенной Хайзенберга.-- --Качество :WEB-DLRip-AVC 1080p
Формат: MKV
Видео кодек: H264
Видео: 5180Кбит/сек,1916х1076(16.9),в 23.976кадр/сек,AVC(High@L4)(CABAC/4 Ref Frames)
Аудио Кодек:AC3
Аудио #1:AC3 , 384 Kbps, 48.0 KHz, 6 ch- Kravec -Русский
Аудио #2:AC3 , 384 Kbps, 48.0 KHz, 6 ch- LostFilm -Русский
Аудио #3:AC3 , 384Kbps, 48.0 KHz, 6 ch- NewStudio -Русский
Аудио #4:AC3 , 384 Kbps, 48.0 KHz, 6 ch- Jaskier -Русский
Аудио #5: AC3, 384 Kbps, 48.0 KHz,6 ch - - English - Оригинал--

Доп. информация:

Звуковая дорожка сделана путем наложения чистого голоса озвучивателей на центральный канал оригинальной дорожки. Качество идентично звуковой дорожке.
--

Список эпизодов сезона


01 Выключатель (Switch)
02 Пирог (Cobbler)
03 Амарильо (Amarillo)
04 Без перчаток (Gloves Off)
05 Ребекка (Rebecca)
06 Бали Хай (Bali Ha'i)
07 Надувной (Inflatable)
08 Фифи (Fifi)
09 На волоске (Nailed)
10 Щёлк! (Klick)
--

MediaInfo сезона

Общее
Уникальный идентификатор : 204262550002701751960417239248712983519 (0x99AB894190EE47A99561777BD14363DF)
Полное имя : E:\К ИНО\ЛУЧШЕ ЗВОНИТЕ СОЛУ\Better_Call_Saul_2016_S02_[Kravec_LostFilm_NewStudio_Jaskier]_DD5.1_N.B_WEB-DL_1080_Rus_Eng\Better_Call_Saul_2016_S02E01_DD5.1_N.B_WEB-DL_1080_4xRus_Eng.mkv
Формат : Matroska
Версия формата : Version 4 / Version 2
Размер файла : 2,33 Гбайт
Продолжительность : 46 м.
Общий поток : 7103 Кбит/сек
Название фильма : Better_Call_Saul_2016_S02E01_DD5.1_N.B_WEB-DL_1080_4xRus_Eng
Дата кодирования : UTC 2016-03-08 16:34:09
Программа кодирования : mkvmerge v8.9.0 ('Father Daughter') 64bit
Библиотека кодирования : libebml v1.3.3 + libmatroska v1.4.4
Видео
Идентификатор : 1
Формат : AVC
Формат/Информация : Advanced Video Codec
Профиль формата : High@L4
Параметр CABAC формата : Да
Параметр ReFrames формата : 4 кадра
Идентификатор кодека : V_MPEG4/ISO/AVC
Продолжительность : 46 м.
Битрейт : 5180 Кбит/сек
Ширина : 1916 пикселей
Высота : 1076 пикселей
Соотношение сторон : 16:9
Режим частоты кадров : Постоянный
Частота кадров : 23,976 (23976/1000) кадра/сек
Цветовое пространство : YUV
Субдискретизация насыщенности : 4:2:0
Битовая глубина : 8 бит
Тип развёртки : Прогрессивная
Бит/(Пиксели*Кадры) : 0.105
Размер потока : 1,70 Гбайт (73%)
Язык : English
Default : Да
Forced : Нет
Цветовой диапазон : Limited
Основные цвета : BT.709
Характеристики трансфера : BT.709
Коэффициенты матрицы : BT.709
Аудио #1
Идентификатор : 4
Формат : AC-3
Формат/Информация : Audio Coding 3
Расширение режима : CM (complete main)
Параметр Endianness формата : Big
Идентификатор кодека : A_AC3
Продолжительность : 46 м.
Вид битрейта : Постоянный
Битрейт : 384 Кбит/сек
Каналы : 6 каналов
Расположение каналов : Front: L C R, Side: L R, LFE
Частота : 48,0 КГц
Частота кадров : 31,250 кадров/сек (1536 spf)
Метод сжатия : С потерями
Размер потока : 129 Мбайт (5%)
Default : Да
Forced : Нет
Аудио #2
Идентификатор : 5
Формат : AC-3
Формат/Информация : Audio Coding 3
Расширение режима : CM (complete main)
Параметр Endianness формата : Big
Идентификатор кодека : A_AC3
Продолжительность : 46 м.
Вид битрейта : Постоянный
Битрейт : 384 Кбит/сек
Каналы : 6 каналов
Расположение каналов : Front: L C R, Side: L R, LFE
Частота : 48,0 КГц
Частота кадров : 31,250 кадров/сек (1536 spf)
Метод сжатия : С потерями
Размер потока : 129 Мбайт (5%)
Default : Нет
Forced : Нет
Аудио #3
Идентификатор : 6
Формат : AC-3
Формат/Информация : Audio Coding 3
Расширение режима : CM (complete main)
Параметр Endianness формата : Big
Идентификатор кодека : A_AC3
Продолжительность : 46 м.
Вид битрейта : Постоянный
Битрейт : 384 Кбит/сек
Каналы : 6 каналов
Расположение каналов : Front: L C R, Side: L R, LFE
Частота : 48,0 КГц
Частота кадров : 31,250 кадров/сек (1536 spf)
Метод сжатия : С потерями
Размер потока : 129 Мбайт (5%)
Default : Нет
Forced : Нет
Аудио #4
Идентификатор : 7
Формат : AC-3
Формат/Информация : Audio Coding 3
Расширение режима : CM (complete main)
Параметр Endianness формата : Big
Идентификатор кодека : A_AC3
Продолжительность : 46 м.
Вид битрейта : Постоянный
Битрейт : 384 Кбит/сек
Каналы : 6 каналов
Расположение каналов : Front: L C R, Side: L R, LFE
Частота : 48,0 КГц
Частота кадров : 31,250 кадров/сек (1536 spf)
Метод сжатия : С потерями
Размер потока : 129 Мбайт (5%)
Default : Нет
Forced : Нет
Аудио #5
Идентификатор : 8
Формат : AC-3
Формат/Информация : Audio Coding 3
Расширение режима : CM (complete main)
Параметр Endianness формата : Big
Идентификатор кодека : A_AC3
Продолжительность : 46 м.
Вид битрейта : Постоянный
Битрейт : 384 Кбит/сек
Каналы : 6 каналов
Расположение каналов : Front: L C R, Side: L R, LFE
Частота : 48,0 КГц
Частота кадров : 31,250 кадров/сек (1536 spf)
Метод сжатия : С потерями
Размер потока : 129 Мбайт (5%)
Default : Нет
Forced : Нет
Текст #1
Идентификатор : 2
Формат : UTF-8
Идентификатор кодека : S_TEXT/UTF8
Идентификатор кодека/Информация : UTF-8 Plain Text
Продолжительность : 45 м.
Битрейт : 93 бит/сек
Count of elements : 689
Размер потока : 30,8 Кбайт (0%)
Язык : Russian
Default : Нет
Forced : Нет
Текст #2
Идентификатор : 3
Формат : UTF-8
Идентификатор кодека : S_TEXT/UTF8
Идентификатор кодека/Информация : UTF-8 Plain Text
Продолжительность : 44 м.
Битрейт : 66 бит/сек
Count of elements : 754
Размер потока : 21,8 Кбайт (0%)
Язык : English
Default : Нет
Forced : Нет
--

Скриншоты

-- --

Как закачать отдельный файл

1. Открыть торрент
2. Снять галки с тех файлов торрента, которые мы не хотим закачивать. Оставляем только на нужных нам файлах (файле).
3. Нажать О.К.
В клиенте utorrent
Инструкция
1) Открыть торрент

2) Снять галки с тех файлов торрента, которые мы не хотим закачивать:
* либо вручную, снимая с каждого файла галку( скрин №1)
* либо, нажав кнопку "Снять метки (Select None)", сняв сразу со всех файлов(скрин №2)
№1

№2

Оставляем только на нужных нам файлах (файле).

3)Нажать О.К
-- -- --Внимание!!! 22.04. 2016. РАЗДАЧА ОБНОВЛЕНА. ОБНОВИТЕ ТОРЕНТ ФАЙЛ.ПРИЯТНОГО ПРОСМОТРА . ФИНАЛ СЕЗОНА. --Релиз от: Nikolai.Baranov & PIRATIYA -- -- -- --
[Профиль] [ЛС]
Показать сообщения:    

Текущее время: Сегодня 08:50

Часовой пояс: GMT



Вы не можете начинать темы
Вы не можете отвечать на сообщения
Вы не можете редактировать свои сообщения
Вы не можете удалять свои сообщения
Вы не можете голосовать в опросах
Вы не можете прикреплять файлы к сообщениям
Вы не можете скачивать файлы