Лучшее Рождество! / Nativity! (Дэбби Иситт / Debbie Isitt) [2009, Великобритания, комедия, семейный, BDRip] DVO (NLS)

 
Автор Сообщение

TorrentFilm ®

Пол:

Стаж: 2 года

Сообщений: 7741



Награды: Нет

Торрент-статистика

Создавать темы 05-Янв-2015 00:00

[Цитировать]

Лучшее Рождество! / Nativity!- Год выпуска: 2009
Выпущено: Великобритания
Жанр: комедия, семейный
Продолжительность: 01:46:01
Перевод: Профессиональный (двухголосый, закадровый) NLS
Субтитры: нет-Режиссер: Дэбби Иситт / Debbie Isitt
В ролях: Мартин Фриман, Марк Вуттон, Джейсон Уоткинс, Эшли Дженсен, Пэм Феррис, Алан Карр, Рикки Томлинсон, Рози Кавальеро, Джон Сешнс, Филлис Логан
О фильме: Пол Маденс, школьный учитель, и в прошлом неудавшийся актер театра. По жизни неудачник и вечно недовольный жизнью человек. В таком ассорти характеристик тяжело найти нужное качество для удачной постановки школьного рождественского спектакля, в котором ему отвели роль продюсера. А тут еще и «старая» любовь всплыла из неоткуда. Кому же захочется ударить в грязь лицом на виду у всех?!-Релиз:
Автор: sociolog_melvas
Качество: BDRip (источник: / BD-Remux / 1080p)
Формат: AVI
Видео: 704x400 (1.76:1), 24 fps, XviD build 65 ~1823 kbps avg, 0.27 bit/pixel
Аудио: 48 kHz, AC3 Dolby Digital, 2/0 (L,R), ~128.00 kbps avg rus
Размер: 1486.48 Mb (1/3 DVD-R)
Скачать: Семпл-

Кадры из фильма


-

Mi

Формат : AVI
Формат/Информация : Audio Video Interleave
Размер файла : 1,45 Гбайт
Продолжительность : 1 ч. 46 м.
Общий поток : 1960 Кбит/сек
Название фильма : Лучшее Рождество! / Nativity! (2009) BDRip
Режиссёр : sociolog_melvas
Жанр : комедия, семейный
Программа кодирования : VirtualDubMod 1.5.10.2 (build 2540/release)
Примечание : 31.12.2014
Видео
Идентификатор : 0
Формат : MPEG-4 Visual
Профиль формата : Advanced Simple@L5
Параметр BVOP формата : 1
Параметр QPel формата : Нет
Параметр GMC формата : Без точки перехода
Параметр матрицы формата : Выборочная
Идентификатор кодека : XVID
Идентификатор кодека/Подсказка : XviD
Продолжительность : 1 ч. 46 м.
Битрейт : 1823 Кбит/сек
Ширина : 704 пикселя
Высота : 400 пикселей
Соотношение сторон : 16:9
Частота кадров : 24,000 кадра/сек
Цветовое пространство : YUV
Субдискретизация насыщенности : 4:2:0
Битовая глубина : 8 бит
Тип развёртки : Прогрессивная
Метод сжатия : С потерями
Бит/(Пиксели*Кадры) : 0.270
Размер потока : 1,35 Гбайт (93%)
Библиотека кодирования : XviD 65
Аудио
Идентификатор : 1
Формат : AC-3
Формат/Информация : Audio Coding 3
Расширение режима : CM (complete main)
Параметр Endianness формата : Big
Идентификатор кодека : 2000
Продолжительность : 1 ч. 45 м.
Вид битрейта : Постоянный
Битрейт : 128 Кбит/сек
Каналы : 2 канала
Расположение каналов : Front: L R
Частота : 48,0 КГц
Битовая глубина : 16 бит
Метод сжатия : С потерями
Размер потока : 96,9 Мбайт (7%)
Выравнивание : Разделение по промежуткам
Продолжительность промежутка : 42 мс. (1,00 видеокадр)
Время предзагрузки промежутка : 500 мс.
-
[Профиль] [ЛС]

Создавать темы 06-Авг-2015 22:50 (спустя 7 месяцев 1 день)

Топик был перенесен из форума Фильмы до 2014 года в форум Фильмы до 2012 года
sergej644
 

Создавать темы 12-Июн-2016 08:48 (спустя 1 год 5 месяцев)

Топик был перенесен из форума Фильмы 2011 года в форум Фильмы 2009 года
Russian Mafia
 
Показать сообщения:    

Текущее время: Сегодня 02:24

Часовой пояс: GMT



Вы не можете начинать темы
Вы не можете отвечать на сообщения
Вы не можете редактировать свои сообщения
Вы не можете удалять свои сообщения
Вы не можете голосовать в опросах
Вы не можете прикреплять файлы к сообщениям
Вы не можете скачивать файлы