Лучшее время года / The Most Wonderful Time of the Year (Майкл Скотт / Michael Scott) [2008, США, Мелодрама, HDRip] MVO (Кинопоказ) + DVO

 
Автор Сообщение

painkiller ®

Стаж: 2 года 3 месяца

Сообщений: 582



Награды: Нет

Торрент-статистика

Создавать темы 14-Авг-2014 13:00

[Цитировать]

Лучшее время года / The Most Wonderful Time of the Year
Страна: США
Жанр: Мелодрама
Год выпуска: 2008
Продолжительность: 01:30:20
Перевод 1: Профессиональный (многоголосый закадровый) ТК "Кинопоказ" по заказу телеагенства "Русский репортаж"
Перевод 2: Профессиональный (двухголосый закадровый)
Cубтитры: нет
Оригинальная аудиодорожка: нет
Режиссер: Майкл Скотт / Michael Scott
В ролях: Брук Бернс (Дженнифер Каллен), Вуди Джеффрис (Ричард Уиндом), Генри Уинклер (дядя Ральф), Уоррен Кристи (Морган Дерби), Коннор Кристофер Левинс (Брайан Каллен)
Описание: Рассказ о матери-одиночке, вновь открывшей для себя всю радость Рождества после встречи с прекрасным незнакомцем, приглашенным в дом ее дядей.
Сэмпл: http://multi-up.com/979417
Качество видео: HDRip
Формат видео: AVI
Видео: MPEG4, XviD, 624x352 (16:9), 23.976 fps, 885 Kbps (0.168 bit/pixel)
Аудио 1: MP3, 48.0 KHz, 2 ch, 128 Kbps, CBR - mvo
Аудио 2: MP3, 48.0 KHz, 2 ch, 128 Kbps, CBR - dvo

MediaInfo

Общее
Полное имя : K:\МОИ РАЗДАЧИ\Лучшее время года\700\Лучшее время года.avi
Формат : AVI
Формат/Информация : Audio Video Interleave
Размер файла : 746 Мбайт
Продолжительность : 1 ч. 30 м.
Общий поток : 1155 Кбит/сек
Название фильма : Лучшее время года / The Most Wonderful Time of the Year (2008)
Программа кодирования : VirtualDubMod 1.5.10.2 (build 2540/release)
Библиотека кодирования : VirtualDubMod build 2540/release
Правообладатель : miha2154
Видео
Идентификатор : 0
Формат : MPEG-4 Visual
Профиль формата : Advanced Simple@L5
Параметр BVOP формата : 2
Параметр QPel формата : Нет
Параметр GMC формата : Без точки перехода
Параметр матрицы формата : Default (MPEG)
Идентификатор кодека : XVID
Идентификатор кодека/Подсказка : XviD
Продолжительность : 1 ч. 30 м.
Битрейт : 885 Кбит/сек
Ширина : 624 пикселя
Высота : 352 пикселя
Соотношение сторон : 16:9
Частота кадров : 23,976 кадра/сек
Цветовое пространство : YUV
Субдискретизация насыщенности : 4:2:0
Битовая глубина : 8 бит
Тип развёртки : Прогрессивная
Метод сжатия : С потерями
Бит/(Пиксели*Кадры) : 0.168
Размер потока : 572 Мбайт (77%)
Библиотека кодирования : XviD 1.1.0 (UTC 2005-11-22)
Аудио #1
Идентификатор : 1
Формат : MPEG Audio
Версия формата : Version 1
Профиль формата : Layer 3
Режим : Joint stereo
Расширение режима : MS Stereo
Идентификатор кодека : 55
Идентификатор кодека/Подсказка : MP3
Продолжительность : 1 ч. 30 м.
Вид битрейта : Постоянный
Битрейт : 128 Кбит/сек
Каналы : 2 канала
Частота : 48,0 КГц
Метод сжатия : С потерями
Размер потока : 82,7 Мбайт (11%)
Выравнивание : Разделение по промежуткам
Продолжительность промежутка : 42 мс. (1,00 видеокадр)
Время предзагрузки промежутка : 500 мс.
Заголовок : Профессиональный (многоголосый закадровый) Кинопоказ
Аудио #2
Идентификатор : 2
Формат : MPEG Audio
Версия формата : Version 1
Профиль формата : Layer 3
Режим : Joint stereo
Расширение режима : MS Stereo
Идентификатор кодека : 55
Идентификатор кодека/Подсказка : MP3
Продолжительность : 1 ч. 30 м.
Вид битрейта : Постоянный
Битрейт : 128 Кбит/сек
Каналы : 2 канала
Частота : 48,0 КГц
Метод сжатия : С потерями
Размер потока : 82,7 Мбайт (11%)
Выравнивание : Соединение по промежуткам
Продолжительность промежутка : 42 мс. (1,00 видеокадр)
Время предзагрузки промежутка : 504 мс.
Заголовок : Профессиональный (двухголосый закадровый)

Скриншоты


[Профиль] [ЛС]

Создавать темы 06-Авг-2015 23:14 (спустя 11 месяцев 23 дня)

Топик был перенесен из форума Фильмы до 2014 года в форум Фильмы до 2012 года
sergej644
 

Создавать темы 12-Июн-2016 08:51 (спустя 1 год 9 месяцев)

Топик был перенесен из форума Фильмы 2011 года в форум Фильмы 2006-2008 года
Russian Mafia
 
Показать сообщения:    

Текущее время: Сегодня 12:53

Часовой пояс: GMT



Вы не можете начинать темы
Вы не можете отвечать на сообщения
Вы не можете редактировать свои сообщения
Вы не можете удалять свои сообщения
Вы не можете голосовать в опросах
Вы не можете прикреплять файлы к сообщениям
Вы не можете скачивать файлы