Лучшее во мне / The Best of Me (2014) BDRip 1080p от ExKinoRay | D | Лицензия

 
Автор Сообщение

Russian Mafia ®

Пол:

Стаж: 1 год 8 месяцев

Сообщений: 4257



Награды: 10 (Подробнее)

Mega Seeder 2 (Количество: 1) Top Releaser 5 (Количество: 1) Top Releaser 4 (Количество: 1)
Торрент-статистика

Создавать темы 28-Мар-2016 12:53

[Цитировать]

Информация о фильме
Название: Лучшее во мне
Оригинальное название: The Best of Me
Год выпуска: 2014
Жанр: Драма, мелодрама
Выпущено: США, DiNovi Pictures, Finch Entertainment, Relativity Media, Surefire Entertainment Capital
Режиссер: Майкл Хоффман
В ролях: Джеймс Мэрсден, Мишель Монахэн, Лиана Либерато, Люк Брейси, Джералд МакРэйни, Кэролайн Гудолл, Скайлер Фиск, Джон Тенни, Кларк Питерс, Себастьян Арселус, Шон Бриджерс
О фильме: История о двух бывших возлюбленных подростках. Никто из них не жил жизнью, которую они представляли и никто не может забыть страстную первую любовь, которая изменила всю жизнь. И вот обоих зовут на похороны их наставника, который когда-то дал им приют…

Файл
Качество: BDRip (1080p)
Видео: MPEG-4 AVC, 8888 Kбит/с, 1920x856, 24 кадр/с
Аудио: Русский (AC3, 6 ch, 640 Кбит/с), (DTS, 6 ch, 1510 Кбит/с)
Продолжительность: 01:57:40
Перевод: Дублированный
Сохранены оригинальные чаптеры как на Blu-Ray.
Озвучивание - Дублированное (лицензия)

x264

x264 [info]: frame I:1219 Avg QP:17.40 size:235680
x264 [info]: frame P:39323 Avg QP:20.30 size: 75750
x264 [info]: frame B:128911 Avg QP:21.49 size: 35459
x264 [info]: consecutive B-frames: 2.7% 3.8% 10.0% 19.7% 17.8% 41.2% 3.1% 0.4% 0.7% 0.5%
x264 [info]: mb I I16..4: 14.3% 70.3% 15.4%
x264 [info]: mb P I16..4: 12.0% 25.6% 3.0% P16..4: 26.5% 21.9% 4.7% 1.2% 0.1% skip: 5.1%
x264 [info]: mb B I16..4: 5.9% 7.6% 0.7% B16..8: 30.2% 12.5% 1.9% direct:10.9% skip:30.3% L0:42.6% L1:42.5% BI:14.9%
x264 [info]: 8x8 transform intra:58.4% inter:63.2%
x264 [info]: direct mvs spatial:98.3% temporal:1.7%
x264 [info]: coded y,uvDC,uvAC intra: 73.1% 85.7% 63.6% inter: 26.2% 45.1% 20.8%
x264 [info]: i16 v,h,dc,p: 15% 13% 25% 48%
x264 [info]: i8 v,h,dc,ddl,ddr,vr,hd,vl,hu: 14% 9% 17% 8% 9% 10% 10% 10% 12%
x264 [info]: i4 v,h,dc,ddl,ddr,vr,hd,vl,hu: 18% 11% 31% 5% 7% 7% 7% 6% 7%
x264 [info]: i8c dc,h,v,p: 45% 22% 19% 13%
x264 [info]: Weighted P-Frames: Y:8.2% UV:5.7%
x264 [info]: ref P L0: 49.5% 12.6% 22.9% 7.3% 7.1% 0.7% 0.0%
x264 [info]: ref B L0: 77.7% 16.2% 4.9% 1.2%
x264 [info]: ref B L1: 92.9% 7.1%
x264 [info]: kb/s:8879.81

Инфо-файл

Общее
Уникальный идентификатор : 218781156408223887544901054225432157245 (0xA497B7D16E8E643098C89657561F9C3D)
Полное имя : D:ЗагрузкиThe.Best.Of.Me.2014.Rus.Transfer.x264.BDRip.(1080p).ExKinoRay.mkv
Формат : Matroska
Версия формата : Version 2
Размер файла : 9,07 Гбайт
Продолжительность : 1 ч. 57 м.
Общий поток : 11,0 Мбит/сек
Название фильма : Лучшее во мне.2014.Rip by: ollan
Дата кодирования : UTC 2015-01-29 08:02:03
Программа кодирования : mkvmerge v5.6.0 ('Kenya Kane') built on May 27 2012 16:44:04
Библиотека кодирования : libebml v1.2.3 + libmatroska v1.3.0
Видео
Идентификатор : 1
Формат : AVC
Формат/Информация : Advanced Video Codec
Профиль формата : High@L4.1
Параметр CABAC формата : Да
Параметр ReFrames формата : 5 кадров
Идентификатор кодека : V_MPEG4/ISO/AVC
Продолжительность : 1 ч. 57 м.
Битрейт : 8888 Кбит/сек
Ширина : 1920 пикселей
Высота : 856 пикселей
Соотношение сторон : 2,25:1
Режим частоты кадров : Постоянный
Частота кадров : 24,000 кадра/сек
Цветовое пространство : YUV
Субдискретизация насыщенности : 4:2:0
Битовая глубина : 8 бит
Тип развёртки : Прогрессивная
Бит/(Пиксели*Кадры) : 0.225
Размер потока : 7,12 Гбайт (79%)
Библиотека кодирования : x264 core 125 r2200 999b753
Настройки программы : cabac=1 / ref=5 / deblock=1:-3:-3 / analyse=0x3:0x133 / me=umh / subme=11 / psy=1 / psy_rd=1.00:0.10 / mixed_ref=1 / me_range=32 / chroma_me=1 / trellis=2 / 8x8dct=1 / cqm=0 / deadzone=21,11 / fast_pskip=0 / chroma_qp_offset=-3 / threads=12 / lookahead_threads=2 / sliced_threads=0 / nr=0 / decimate=0 / interlaced=0 / bluray_compat=0 / constrained_intra=0 / bframes=9 / b_pyramid=2 / b_adapt=2 / b_bias=0 / direct=3 / weightb=1 / open_gop=0 / weightp=2 / keyint=240 / keyint_min=23 / scenecut=40 / intra_refresh=0 / rc=2pass / mbtree=0 / bitrate=8888 / ratetol=1.0 / qcomp=0.60 / qpmin=0 / qpmax=69 / qpstep=4 / cplxblur=20.0 / qblur=0.5 / ip_ratio=1.40 / pb_ratio=1.30 / aq=1:1.00
Язык : English
Default : Да
Forced : Нет
Аудио #1
Идентификатор : 2
Формат : AC-3
Формат/Информация : Audio Coding 3
Расширение режима : CM (complete main)
Параметр Endianness формата : Big
Идентификатор кодека : A_AC3
Продолжительность : 1 ч. 57 м.
Вид битрейта : Постоянный
Битрейт : 640 Кбит/сек
Каналы : 6 каналов
Расположение каналов : Front: L C R, Side: L R, LFE
Частота : 48,0 КГц
Битовая глубина : 16 бит
Метод сжатия : С потерями
Размер потока : 539 Мбайт (6%)
Заголовок : Дублированный (Лицензия)
Язык : Russian
Default : Да
Forced : Нет
Аудио #2
Идентификатор : 3
Формат : DTS
Формат/Информация : Digital Theater Systems
Режим : 16
Параметр Endianness формата : Big
Идентификатор кодека : A_DTS
Продолжительность : 1 ч. 57 м.
Вид битрейта : Постоянный
Битрейт : 1510 Кбит/сек
Каналы : 6 каналов
Расположение каналов : Front: L C R, Side: L R, LFE
Частота : 48,0 КГц
Битовая глубина : 24 бит
Метод сжатия : С потерями
Размер потока : 1,24 Гбайт (14%)
Заголовок : Дублированный (Лицензия)
Язык : Russian
Default : Нет
Forced : Нет
Меню
00:00:00.000 : en:Chapter 01
00:08:28.000 : en:Chapter 02
00:19:27.333 : en:Chapter 03
00:28:28.750 : en:Chapter 04
00:36:46.500 : en:Chapter 05
00:46:46.583 : en:Chapter 06
00:58:22.333 : en:Chapter 07
01:03:15.125 : en:Chapter 08
01:16:01.500 : en:Chapter 09
01:25:10.000 : en:Chapter 10
01:32:53.916 : en:Chapter 11
01:43:50.041 : en:Chapter 12
01:57:40.500 : en:Chapter 13

Скриншоты



[Профиль] [ЛС]
Показать сообщения:    

Текущее время: Сегодня 07:14

Часовой пояс: GMT



Вы не можете начинать темы
Вы не можете отвечать на сообщения
Вы не можете редактировать свои сообщения
Вы не можете удалять свои сообщения
Вы не можете голосовать в опросах
Вы не можете прикреплять файлы к сообщениям
Вы не можете скачивать файлы