Лунтик и его друзья [01-08x1-455 из ?] (2006-2015) WEB-DLRip 1080p от -merci-

 
Автор Сообщение

достали все ®

Пол:

Стаж: 1 год 8 месяцев

Сообщений: 6600



Награды: 12 (Подробнее)

Mega Seeder 2 (Количество: 1) Mega Releaser 2 (Количество: 1) Mega Seeder 4 (Количество: 1)
Торрент-статистика

Создавать темы 22-Фев-2016 05:48

[Цитировать]

Информация о фильме
Название: Лунтик и его друзья
Год выпуска: 2006-2015
Страна: Россия, студия Мельница
Жанр: мультфильм, детский, комедия, приключения, семейный
Продолжительность: 453 х ~ 00:04:57
Перевод: Не требуется
Русские субтитры: нет
Режиссёры: Дарина Шмидт, Екатерина Салабай, Екатерина Шрага
Роли озвучивали: Михаил Черняк, Екатерина Гороховская, Елена Шульман, Наталья Данилова, Юлия Рудина, Елена Соловьева, Анатолий Петров, Олег Куликович, Константин Бронзит, Светлана Письмиченко
Описание: Лунтик — главный герой мультфильма, загадочный малыш, родившийся на Луне и попавший на Землю. На Земле Лунтик нашел друзей: кузнечика Кузю, божью коровку Милу и Пчелёнка. От природы добрый и общительный, лунный малыш становится всеобщем любимцем обитателей поляны, на которой он волею судеб оказался. Особенно тепло к Лунтику относятся пожилые бездетные супруги шершни, которые стали его опекунами и называют своим внуком.-Доп. информация: Это WEB-версия, широкоформатная (16:9), выходные титры всего 8 секунд.
Семпл / Список серий
ЗЫ: В версии с DVD (4:3) выходные титры были 55 секунд.-Файл:
Формат: MP4
Качество: WEB-DLRip 1080p (wide)
Видео: Mpeg4-AVC, High@L4, 1920x1080 (16:9), 25 fps, ~2 643 Kbps
Аудио: 44.1 kHz, AAC-LC, 2/0 (L,R) ch, ~192.00 kbps
Субтитры: отсутствуют

MI

037. Простуда. Full-HD-merci-.mp4
Format : MPEG-4
Format profile : Base Media
Codec ID : isom (isom)
File size : 101 MiB
Duration : 4mn 57s
Overall bit rate mode : Variable
Overall bit rate : 2 839 Kbps
Encoded date : UTC 2016-02-19 02:43:47
Tagged date : UTC 2016-02-19 02:43:47
Writing application : My MP4Box GUI 0.6.0.6
Video
ID : 1
Format : AVC
Format/Info : Advanced Video Codec
Format profile : High@L4
Format settings, CABAC : Yes
Format settings, ReFrames : 2 frames
Codec ID : avc1
Codec ID/Info : Advanced Video Coding
Duration : 4mn 57s
Bit rate : 2 643 Kbps
Maximum bit rate : 7 247 Kbps
Width : 1 920 pixels
Height : 1 080 pixels
Display aspect ratio : 16:9
Frame rate mode : Constant
Frame rate : 25.000 fps
Color space : YUV
Chroma subsampling : 4:2:0
Bit depth : 8 bits
Scan type : Progressive
Bits/(Pixel*Frame) : 0.051
Stream size : 93.8 MiB (93%)
Title : 037_1080.mp4
Encoded date : UTC 2015-11-17 20:32:50
Tagged date : UTC 2016-02-19 02:43:54
Audio
ID : 2
Format : AAC
Format/Info : Advanced Audio Codec
Format profile : LC
Codec ID : 40
Duration : 4mn 57s
Bit rate mode : Variable
Bit rate : 192 Kbps
Maximum bit rate : 203 Kbps
Channel(s) : 2 channels
Channel positions : Front: L R
Sampling rate : 44.1 KHz
Frame rate : 43.066 fps (1024 spf)
Compression mode : Lossy
Stream size : 6.82 MiB (7%)
Title : 037-ru.aac
Encoded date : UTC 2016-02-19 02:43:53
Tagged date : UTC 2016-02-19 02:43:54

Скриншоты

Релиз от: -merci-
[Профиль] [ЛС]
Кто просматривает тему:

Показать сообщения:    

Текущее время: Сегодня 19:31

Часовой пояс: GMT



Вы не можете начинать темы
Вы не можете отвечать на сообщения
Вы не можете редактировать свои сообщения
Вы не можете удалять свои сообщения
Вы не можете голосовать в опросах
Вы не можете прикреплять файлы к сообщениям
Вы не можете скачивать файлы