Лунный свет 3: Дни вечности / Lichtmond 3: Days of Eternity (2014) BDRemux 1080p

 
Автор Сообщение

sergej644 ®

Пол:

Стаж: 4 года 11 месяцев

Сообщений: 6046

Откуда: Soviet Union



Награды: Нет

Торрент-статистика

Создавать темы 31-Окт-2014 11:12

[Цитировать]

Информация о фильме
Название: Лунный свет 3: Дни вечности
Оригинальное: Lichtmond 3: Days of Eternity
Год выхода: 2014
Выпущено: Blu Phase Media GmbH, IMAGO-D Studios
Страна: Германия
Жанр: Документальный, видовой, музыка, релакс
Продолжительность: 00:53:02
Перевод: Не требуется
Режиссер: Джорджио Коппехели, Мартин Коппехели-Описание
Своим третьим альбомом Lichtmond 3: Days of Eternity братья Giorgio и Martin Koppehele продолжают свой путь путешествием по первозданному миру фантастической планеты Хронос, где время растворяется в эстетике звука и изображения...

Треклист

01. Nightflight to Chronos Part 1
02. Nightflight to Chronos Part 2
03. Feel the Spirit (vocal Meera Fe)
04. Wheel of Time (vocal Martin Koppehele)
05. Catching Rainbows (vocal Meera Fe)
06. Empires of the Past (poem Sky du Mont; vocal Meera Fe)
07. Days of Eternity (vocal I Muvrini, Karen Kassulat & Thomas E. Killinger)
08. Space and Beyond
09. Endless Moments (vocal Midge Ure & Suna Koppehele)
10. Leaving Chronos
-Файл
Кодек: H.264
Формат: MKV
Качество: BDRemux 1080p (Источник: Blu-ray)
Видео: MPEG-4 AVC (16:9) 1920x1080 pix, 23.976 fps, 16998 kbps
Аудио I: Flac (2.0) 16 bit, 48 kHz, Lossless (German)
Аудио II: DTS Digital Surround (5.1) 24 bit, 48 kHz, 1509 kbps (German)
Аудио III: DTS Digital Surround (5.1) 24 bit, 48 kHz, 1509 kbps (English)
Аудио IV: Dolby Digital (5.1) 16 bit, 48 kHz, 448 kbps (English)
Меню: Сохранены оригинальные чаптеры Blu-ray

MI

General
Unique ID : 213629854531175958425607351394668011993 (0xA0B79D06D7D852F8861F21B1EBCA61D9)
Format : Matroska
Format version : Version 2
File size : 7.76 GiB
Duration : 53mn 1s
Overall bit rate mode : Variable
Overall bit rate : 21.0 Mbps
Movie name : Лунный свет 3 (2014) BDRemux (1080p)
Encoded date : UTC 2014-10-30 12:20:11
Writing application : mkvmerge v5.8.0 ('No Sleep / Pillow') built on Sep 2 2012 15:37:04
Writing library : libebml v1.2.3 + libmatroska v1.3.0
Video
ID : 1
Format : AVC
Format/Info : Advanced Video Codec
Format profile : High@L4.1
Format settings, CABAC : Yes
Format settings, ReFrames : 3 frames
Codec ID : V_MPEG4/ISO/AVC
Duration : 53mn 1s
Bit rate mode : Variable
Maximum bit rate : 20.0 Mbps
Width : 1 920 pixels
Height : 1 080 pixels
Display aspect ratio : 16:9
Frame rate mode : Constant
Frame rate : 23.976 fps
Color space : YUV
Chroma subsampling : 4:2:0
Bit depth : 8 bits
Scan type : Progressive
Title : Release by Alex260680
Language : German
Default : Yes
Forced : No
Audio #1
ID : 2
Format : FLAC
Format/Info : Free Lossless Audio Codec
Codec ID : A_FLAC
Duration : 53mn 1s
Bit rate mode : Variable
Channel(s) : 2 channels
Sampling rate : 48.0 KHz
Bit depth : 16 bits
Title : Flac 2.0
Writing library : libFLAC 1.2.1 (UTC 2007-09-17)
Language : German
Default : Yes
Forced : No
Audio #2
ID : 3
Format : DTS
Format/Info : Digital Theater Systems
Mode : 16
Format settings, Endianness : Big
Codec ID : A_DTS
Duration : 53mn 1s
Bit rate mode : Constant
Bit rate : 1 509 Kbps
Channel(s) : 6 channels
Channel positions : Front: L C R, Side: L R, LFE
Sampling rate : 48.0 KHz
Bit depth : 24 bits
Compression mode : Lossy
Stream size : 572 MiB (7%)
Title : DTS Digital Surround 5.1
Language : German
Default : No
Forced : No
Audio #3
ID : 4
Format : DTS
Format/Info : Digital Theater Systems
Mode : 16
Format settings, Endianness : Big
Codec ID : A_DTS
Duration : 53mn 1s
Bit rate mode : Constant
Bit rate : 1 509 Kbps
Channel(s) : 6 channels
Channel positions : Front: L C R, Side: L R, LFE
Sampling rate : 48.0 KHz
Bit depth : 24 bits
Compression mode : Lossy
Stream size : 572 MiB (7%)
Title : DTS Digital Surround 5.1
Language : English
Default : No
Forced : No
Audio #4
ID : 5
Format : AC-3
Format/Info : Audio Coding 3
Mode extension : CM (complete main)
Format settings, Endianness : Big
Codec ID : A_AC3
Duration : 53mn 1s
Bit rate mode : Constant
Bit rate : 448 Kbps
Channel(s) : 6 channels
Channel positions : Front: L C R, Side: L R, LFE
Sampling rate : 48.0 KHz
Bit depth : 16 bits
Compression mode : Lossy
Stream size : 170 MiB (2%)
Title : Dolby Digital 5.1
Language : English
Default : No
Forced : No
Menu
00:00:00.000 : en:Nightflight to Chronos Part 1
00:01:38.932 : en:Nightflight to Chronos Part 2
00:03:49.646 : en:Feel the Spirit (vocal Meera Fe)
00:10:25.041 : en:Wheel of Time (vocal Martin Koppehele)
00:15:42.775 : en:Catching Rainbows (vocal Meera Fe)
00:21:57.650 : en:Empires of the Past (poem Sky du Mont; vocal Meera Fe)
00:28:51.229 : en:Days of Eternity (vocal I Muvrini, Karen Kassulat & Thomas E. Killinger)
00:34:59.306 : en:Space and Beyond
00:40:17.040 : en:Endless Moments (vocal Midge Ure & Suna Koppehele)
00:46:34.166 : en:Leaving Chronos
00:50:02.917 : en:End Credits
[Профиль] [ЛС]
Показать сообщения:    

Текущее время: Сегодня 09:11

Часовой пояс: GMT



Вы не можете начинать темы
Вы не можете отвечать на сообщения
Вы не можете редактировать свои сообщения
Вы не можете удалять свои сообщения
Вы не можете голосовать в опросах
Вы не можете прикреплять файлы к сообщениям
Вы не можете скачивать файлы