Лунный свет 2: Вселенная света / Lichtmond 2: Universe of Light (2012) BDRemux 1080p

 
Автор Сообщение

sergej644 ®

Пол:

Стаж: 4 года 11 месяцев

Сообщений: 6043

Откуда: Soviet Union



Награды: Нет

Торрент-статистика

Создавать темы 31-Окт-2014 11:11

[Цитировать]

Информация о фильме
Название: Лунный свет 2: Вселенная света
Оригинальное: Lichtmond 2: Universe of Light
Год выхода: 2012
Выпущено: AL!VE
Страна: Германия
Жанр: Документальный, видовой, музыка, релакс
Продолжительность: 00:53:09
Перевод: Не требуется
Режиссер: Джорджио Коппехели, Мартин Коппехели
-Описание
Второй мультимедийный порект "Lichtmond" - Universe of Light (Вселенная света) подготовлен совместно с музыкальной легендой Alan Parsons. Мировая премьера состоялась в Гамбургском Планетарии в сентябре 2012 года - уникальное 360° шоу всех времен и народов. "Выше, быстрее, шире и все в XXL" - путешествие в фэнтези, в лучах лунного света через волшебные звуки, еще более масштабно и профессионально чем в первом фильме. Погрузитесь в неординарную музыку и пусть ваши FullHD экраны превратятся на один час в двери сказочных миров, которые до селе Вам не приходилось видеть, но наверняка вы мечтали о них.

Треклист

01. Solar Dust Part 1
02. Solar Dust Part 2
03. Soul Affinity
04. Distant Dream
05. Universe of Light
06. Magic Forest
07. State of Mind
08. Moments of Joy (feat. I MURVINI & Karen Kassulat)
09. Precious Life (feat. ALAN PARSONS & the SubClones)
10. Lunar Dust
-Файл
Кодек: H.264
Формат: MKV
Качество: BDRemux 1080p (Источник: Blu-ray)
Видео: MPEG-4 AVC (16:9) 1920x1080 pix, 23.976 fps, 16988 kbps
Аудио I: Flac (2.0) 24 bit, 48 kHz, Lossless (English)
Аудио II: DTS Digital Surround (5.1) 24 bit, 48 kHz, 1509 kbps (German)
Аудио III: Dolby Digital (5.1) 16 bit, 48 kHz, 448 kbps (German)
Меню: Сохранены оригинальные чаптеры Blu-ray

MI

General
Unique ID : 226213633402763392217570075554605954163 (0xAA2F2939E937DD6EB7BFE185832FF473)
Format : Matroska
Format version : Version 2
File size : 7.56 GiB
Duration : 53mn 9s
Overall bit rate mode : Variable
Overall bit rate : 20.4 Mbps
Movie name : Лунный свет 2 (2012) BDRemux (1080p)
Encoded date : UTC 2014-10-31 05:54:09
Writing application : mkvmerge v5.8.0 ('No Sleep / Pillow') built on Sep 2 2012 15:37:04
Writing library : libebml v1.2.3 + libmatroska v1.3.0
Video
ID : 1
Format : AVC
Format/Info : Advanced Video Codec
Format profile : High@L4.1
Format settings, CABAC : Yes
Format settings, ReFrames : 4 frames
Codec ID : V_MPEG4/ISO/AVC
Duration : 53mn 9s
Bit rate mode : Variable
Maximum bit rate : 20.0 Mbps
Width : 1 920 pixels
Height : 1 080 pixels
Display aspect ratio : 16:9
Frame rate mode : Constant
Frame rate : 23.976 fps
Color space : YUV
Chroma subsampling : 4:2:0
Bit depth : 8 bits
Scan type : Progressive
Title : Release by Alex260680
Language : German
Default : Yes
Forced : No
Audio #1
ID : 2
Format : FLAC
Format/Info : Free Lossless Audio Codec
Codec ID : A_FLAC
Duration : 53mn 9s
Bit rate mode : Variable
Channel(s) : 2 channels
Sampling rate : 48.0 KHz
Bit depth : 24 bits
Title : Flac 2.0
Writing library : libFLAC 1.2.1 (UTC 2007-09-17)
Language : English
Default : Yes
Forced : No
Audio #2
ID : 3
Format : DTS
Format/Info : Digital Theater Systems
Mode : 16
Format settings, Endianness : Big
Codec ID : A_DTS
Duration : 53mn 9s
Bit rate mode : Constant
Bit rate : 1 509 Kbps
Channel(s) : 6 channels
Channel positions : Front: L C R, Side: L R, LFE
Sampling rate : 48.0 KHz
Bit depth : 24 bits
Compression mode : Lossy
Stream size : 574 MiB (7%)
Title : DTS Digital Surround 5.1
Language : German
Default : No
Forced : No
Audio #3
ID : 4
Format : AC-3
Format/Info : Audio Coding 3
Mode extension : CM (complete main)
Format settings, Endianness : Big
Codec ID : A_AC3
Duration : 53mn 9s
Bit rate mode : Constant
Bit rate : 448 Kbps
Channel(s) : 6 channels
Channel positions : Front: L C R, Side: L R, LFE
Sampling rate : 48.0 KHz
Bit depth : 16 bits
Compression mode : Lossy
Stream size : 170 MiB (2%)
Title : Dolby Digital 5.1
Language : German
Default : No
Forced : No
Menu
00:00:00.000 : en:Solar Dust Part 1
00:02:20.140 : en:Solar Dust Part 2
00:06:28.388 : en:Soul Affinity
00:11:34.694 : en:Distant Dream
00:17:54.073 : en:Universe of Light
00:23:56.435 : en:Magic Forest
00:29:13.835 : en:State of Mind
00:35:16.114 : en:Moments of Joy (feat. I MURVINI & Karen Kassulat)
00:41:29.487 : en:Precious Life (feat. ALAN PARSONS & the SubClones)
00:47:44.361 : en:Lunar Dust
00:50:56.762 : en:End Credits
[Профиль] [ЛС]
Показать сообщения:    

Текущее время: Сегодня 14:43

Часовой пояс: GMT



Вы не можете начинать темы
Вы не можете отвечать на сообщения
Вы не можете редактировать свои сообщения
Вы не можете удалять свои сообщения
Вы не можете голосовать в опросах
Вы не можете прикреплять файлы к сообщениям
Вы не можете скачивать файлы