Луковое поле (Александр Шабатаев) [1990, Мелодрама, TVRip]

 
Автор Сообщение

reversefile ®

Пол:

Стаж: 4 года 5 месяцев

Сообщений: 842

Откуда: ReverseFile.org



Награды: Нет

Торрент-статистика

Создавать темы 11-Авг-2014 06:20

[Цитировать]

Луковое поле
Жанр: Мелодрама
Год выпуска: 1990
Продолжительность: 01:18:34

Режиссёр: Александр Шабатаев
В ролях: Мерий Ли, Виктор Михайлов, Наталья Егорова, Лев Дуров, Ольга Ензак, Феликс Степун, Исфандиер Гулямов, Сергей Донцов, Александр Лебедев, Геннадий Люй, Ира Друзина, Ростик Проскурня
Описание: По мотивам одноименной повести Анатолия Кима.
Действие происходит в небольшом корейском поселке в Таджикистане, куда судьбой закинуло после долгих скитаний москвича Павла, давно потерявшего связи с семьей и прошлой жизнью. Судьба сводит героя с удивительной женщиной Любой. Кроме тяжелого ежедневного труда на луковом поле она ухаживает за больным мужем и не ругает судьбу. Жизнь ее не озлобила, и все, что происходит рядом имеет смысл и таит надежду на лучшее.

Доп. информация: КИНО-ТЕАТР.ru

Качество видео: TVRip
Формат видео: AVI
Видео: Xvid 720x544 25fps 1190 kbps
Аудио: MP3 48000Hz stereo 128kbps

MediaInfo

Complete name : Lukovoe.pole.1990.TVRip.fenixclub.avi
Format : AVI
Format/Info : Audio Video Interleave
File size : 746 MiB
Duration : 1h 18mn
Overall bit rate : 1 328 Kbps
Writing application : VirtualDubModRus 1.5.10.2 (build 2542/release)
Writing library : VirtualDub build 34753/release
Video
ID : 0
Format : MPEG-4 Visual
Format profile : Advanced Simple@L5
Format settings, BVOP : Yes
Format settings, QPel : No
Format settings, GMC : No warppoints
Format settings, Matrix : Default (H.263)
Codec ID : XVID
Codec ID/Hint : XviD
Duration : 1h 18mn
Bit rate : 1 190 Kbps
Width : 720 pixels
Height : 544 pixels
Display aspect ratio : 4:3
Frame rate : 25.000 fps
Color space : YUV
Chroma subsampling : 4:2:0
Bit depth : 8 bits
Scan type : Progressive
Compression mode : Lossy
Bits/(Pixel*Frame) : 0.122
Stream size : 669 MiB (90%)
Writing library : XviD 1.2.1 (UTC 2008-12-04)
Audio
ID : 1
Format : MPEG Audio
Format version : Version 1
Format profile : Layer 3
Mode : Joint stereo
Mode extension : MS Stereo
Codec ID : 55
Codec ID/Hint : MP3
Duration : 1h 18mn
Bit rate mode : Constant
Bit rate : 128 Kbps
Channel(s) : 2 channels
Sampling rate : 48.0 KHz
Compression mode : Lossy
Stream size : 71.9 MiB (10%)
Alignment : Split accross interleaves
Interleave, duration : 40 ms (1.00 video frame)
Interleave, preload duration : 500 ms

Скриншоты




[Профиль] [ЛС]

Создавать темы 06-Авг-2015 22:04 (спустя 11 месяцев 26 дней)

Топик был перенесен из форума Кино СССР в форум Кино СССР
sergej644
 
Показать сообщения:    

Текущее время: Сегодня 18:50

Часовой пояс: GMT



Вы не можете начинать темы
Вы не можете отвечать на сообщения
Вы не можете редактировать свои сообщения
Вы не можете удалять свои сообщения
Вы не можете голосовать в опросах
Вы не можете прикреплять файлы к сообщениям
Вы не можете скачивать файлы