Лузитания: убийство в Атлантике / Lusitania: Murder on the Atlantic (Кристофер Спенсер / Christopher Spencer) [2007, Великобритания, Германия, Военная драма, DVDRip] VO (den904)

 
Автор Сообщение

TorrentFilm ®

Пол:

Стаж: 2 года

Сообщений: 7741



Награды: Нет

Торрент-статистика

Создавать темы 21-Мар-2016 00:08

[Цитировать]

«Лузитания»: убийство в Атлантике / Lusitania: Murder on the Atlantic- Год выпуска: 2007
Жанр: Военная докудрама
Продолжительность: 01:30:15
Страна: Великобритания, Германия
Cубтитры: нет
Перевод: Одноголосый закадровый den904
Режиссер: Крис Спенсер / Chris Spencer
В ролях: Джон Ханна, Кеннет Крэнэм, Флориан Панцнер, Маделин Гаррод, Грэхэм Хопкинс, Адриан Тополь, Мартин Ле-Метр, Кевин Отто, Карен Хаке, Дин МакКобрей, Андре Вейдеман, Рональд Френс, Стивен Дженнингс, Эйден Литгоу, Эрик Крейг, Робин Скотт, Эндрю Уэли, Питер Бенедикт, Дэниэл Фокс, Розмари Раян, Винсент Лаурентис, Майк ван Эппле...-Описание: Фильм повествует о гибели лайнера «Лузитания», торпедированном 7 мая 1915 года у берегов Ирландии немецкой подводной лодкой U-20. Фактически хладнокровном уничтожении беззащитного гражданского лайнера с 1959 пассажирами на борту. Картина охватывает время, предшествующее гибели лайнера, показывая позицию Британского Адмиралтейства, пустившее корабль в открытое плавание «на свой страх и риск». Затем показано непосредственно путешествие лайнера, затем торпедирование немецкой подлодкой, экипаж которой получил приказ топить любые вражеские суда без исключения. И в завершение судебное разбирательство, в котором вина за гибель лайнера полностью легла на экипаж вражеской подлоки, без упоминания ответственности Британского Адмиралтейства... Судно затонуло за 18 минут. Из 1959 находившихся на борту «Лузитании» погибли 1198, включая 785 пассажиров. Из 159 американских граждан погибли 124. Из 129 детей погибли 94, в их число входит 35 младенцев, которые почти все (кроме четырех) погибли.-SAMPLE | [url=viewtopic.php?t=3803936]DVD[/url]
Качество видео: DVDRip
Формат видео: AVI
Видео: 512x288 (16:9), 25.000fps, XviD, 1022 kbps avg, 0.277 bit/pixel
Аудио: MPEG Audio Layer, 48.0 KHz, 2 ch, 128kbps avg

MediaInfo

GeneralComplete name : D:\Lusitania (2007) DVDRip.aviFormat : AVIFormat/Info : Audio Video InterleaveFile size : 749 MiBDuration : 1h 30mnOverall bit rate : 1 160 KbpsWriting application : VirtualDubMod 1.5.10.3 | www.virtualdub-fr.org || (build 2550/release)Writing library : VirtualDubMod build 2550/release
VideoID : 0Format : MPEG-4 VisualFormat profile : Advanced Simple@L5Format settings, BVOP : 2Format settings, QPel : NoFormat settings, GMC : No warppointsFormat settings, Matrix : CustomCodec ID : XVIDCodec ID/Hint : XviDDuration : 1h 30mnBit rate : 1 022 KbpsWidth : 512 pixelsHeight : 288 pixelsDisplay aspect ratio : 16:9Frame rate : 25.000 fpsColor space : YUVChroma subsampling : 4:2:0Bit depth : 8 bitsScan type : ProgressiveCompression mode : LossyBits/(Pixel*Frame) : 0.277Stream size : 660 MiB (88%)Writing library : XviD 73
AudioID : 1Format : MPEG AudioFormat version : Version 1Format profile : Layer 3Codec ID : 55Codec ID/Hint : MP3Duration : 1h 30mnBit rate mode : ConstantBit rate : 128 KbpsChannel(s) : 2 channelsSampling rate : 48.0 KHzCompression mode : LossyStream size : 82.6 MiB (11%)Alignment : Aligned on interleavesInterleave, duration : 40 ms (1.00 video frame)Interleave, preload duration : 504 msWriting library : LAME3.99rEncoding settings : -m s -V 4 -q 2 -lowpass 17 -b 128

Скриншоты

ipbgg2 писал(а):69593410"Докудрама" - поджанр более общего жанра "Исторический фильм" и по сути является художественным фильмом, в котором события прошлого воспроизводятся актёрами с почти документальной точностью.
[Профиль] [ЛС]
Показать сообщения:    

Текущее время: Сегодня 00:19

Часовой пояс: GMT



Вы не можете начинать темы
Вы не можете отвечать на сообщения
Вы не можете редактировать свои сообщения
Вы не можете удалять свои сообщения
Вы не можете голосовать в опросах
Вы не можете прикреплять файлы к сообщениям
Вы не можете скачивать файлы