Лощина / The Hollow (Шелдон Уилсон / Sheldon Wilson) [2015, США, ужасы, WEB-DLRip] VO

 
Автор Сообщение

TorrentFilm ®

Пол:

Стаж: 2 года

Сообщений: 7741



Награды: Нет

Торрент-статистика

Создавать темы 28-Ноя-2015 00:09

[Цитировать]

Лощина / The Hollow
Страна: США
Год выпуска: 2015
Жанр: ужасы
Продолжительность: 01:25:01
Перевод: Одноголосый закадровый Хихидок, по переводу Антон1, Марла Z и Хихидок
Оригинальная аудиодорожка: нет
Субтитры: нет-Режиссер: Шелдон Уилсон / Sheldon Wilson-В ролях: Гари Чок, Сара Дагдэйл, Ричард Хэрмон,
Стефани Хант, Хилари Джардин, Лэйн МакНил, Алиша Ньютон, Дилан Плэйфейр, Дебора Кара Ангер, Джонатан Уайтселл
--Описание: В канун Хэллоуина на маленький город надвигается убийственная буря. Вместе с темными тучами,
сгущающимися над островом, приходит проклятие. Три сестры должны бороться, чтобы остаться в живых этой темной ночью.
Но это не то, что вы можете убить. Надо лишь попробовать выжить.--Сэмпл: http://sendfile.su/1176481
Качество видео: WEB-DLRip
Исходник: WEB-DLRip 720p
Формат видео: AVI
Видео: XviD (1.2.2) 1064kbps 688x384 23.976fps
Аудио: MP3 128kbps 2ch 16bit 44100khz

MediaInfo

MediaInfoLib - v0.7.62
General
Complete name : F:\Мои раздачи 2\Лощина (The Hollow). 2015г. WEB-DLRip. - kontarik81.avi
Format : AVI
Format/Info : Audio Video Interleave
File size : 731 MiB
Duration : 1h 25mn
Overall bit rate : 1 202 Kbps
Writing application : VirtualDubMod 1.5.10.3 | www.virtualdub-fr.org || (build 2550/release)
Writing library : VirtualDubMod build 2550/release
Video
ID : 0
Format : MPEG-4 Visual
Format profile : Advanced Simple@L5
Format settings, BVOP : 1
Format settings, QPel : No
Format settings, GMC : No warppoints
Format settings, Matrix : Default (MPEG)
Codec ID : XVID
Codec ID/Hint : XviD
Duration : 1h 25mn
Bit rate : 1 064 Kbps
Width : 688 pixels
Height : 384 pixels
Display aspect ratio : 16:9
Frame rate : 23.976 fps
Color space : YUV
Chroma subsampling : 4:2:0
Bit depth : 8 bits
Scan type : Progressive
Compression mode : Lossy
Bits/(Pixel*Frame) : 0.168
Stream size : 647 MiB (89%)
Writing library : XviD 1.2.1 (UTC 2008-12-04)
Audio
ID : 1
Format : MPEG Audio
Format version : Version 1
Format profile : Layer 3
Mode : Joint stereo
Mode extension : MS Stereo
Codec ID : 55
Codec ID/Hint : MP3
Duration : 1h 25mn
Bit rate mode : Constant
Bit rate : 128 Kbps
Channel(s) : 2 channels
Sampling rate : 44.1 KHz
Compression mode : Lossy
Stream size : 77.8 MiB (11%)
Alignment : Split accross interleaves
Interleave, duration : 42 ms (1.00 video frame)
Interleave, preload duration : 500 ms
Writing library : LAME3.99r
Encoding settings : -m j -V 4 -q 2 -lowpass 17 -b 128

Скриншот c названием фильма

Скриншоты

[Профиль] [ЛС]
Показать сообщения:    

Текущее время: Сегодня 23:28

Часовой пояс: GMT



Вы не можете начинать темы
Вы не можете отвечать на сообщения
Вы не можете редактировать свои сообщения
Вы не можете удалять свои сообщения
Вы не можете голосовать в опросах
Вы не можете прикреплять файлы к сообщениям
Вы не можете скачивать файлы