Лофт / The Loft (Эрик Ван Лой)[2014,Триллер] DVDRip-AVC | Лицензия

 
Автор Сообщение

adeei ®

Пол:

Стаж: 1 год 8 месяцев

Сообщений: 63

Откуда: Россия Иваново



Награды: 3 (Подробнее)

Mega Seeder 3 (Количество: 1) Mega Seeder 1 (Количество: 1) Mega Seeder 2 (Количество: 1)
Торрент-статистика

Создавать темы 30-Апр-2015 19:48

[Цитировать]

Лофт / The Loft«Идеальное место для запрещенных фантазий» Год выпуска: 2014
Жанр: Триллер
Выпущено: Бельгия, США / Anonymous Content, Dark Castle Entertainment, Woestijnvis
Продолжительность: 01:38:14
Перевод: Дублированный [Лицензия]-Режиссер: Эрик Ван Лой-В ролях: Карл Урбан, Джеймс Марсден, Вентворт Миллер, Эрик Стоунстрит, Маттиас Шонартс, Изабель Лукас, Рэйчел Тейлор, Рона Митра, Валери Крус, Кали Роча-Описание: Пятеро женатых друзей решают совместно снять респектабельную квартиру, чтобы приводить туда любовниц и реализовывать свои сексуальные фантазии. Но однажды они находят в квартире обнаженное тело убитой женщины… Все пятеро подозревают в убийстве друг друга.- -Качество: DVDRip-AVC
Видео: MPEG-4 AVC, 1665 Кбит/с, 720x576@1024x456
Аудио: Русский, AC3, 6 ch, 448 Кбит/с
Размер: 1.45 ГБ-

MI

x264 [info]: frame I:1642 Avg QP:13.67 size: 41479
x264 [info]: frame P:35069 Avg QP:16.58 size: 17429
x264 [info]: frame B:110653 Avg QP:18.50 size: 4939
Общее
Уникальный идентификатор : 170740027104062336199967644865876810040 (0x807355456B9AD4C5A61178C4420D5938)
Полное имя : D:Loft.2014.DVDRip.(AVC).by_bog3417.mkv
Формат : Matroska
Версия формата : Version 2
Размер файла : 1,45 Гбайт
Продолжительность : 1 ч. 38 м.
Общий поток : 2114 Кбит/сек
Название фильма : by_bog3417
Дата кодирования : UTC 2015-04-30 17:24:38
Программа кодирования : mkvmerge v7.4.0 ('Circles') 64bit built on Dec 12 2014 12:19:56
Библиотека кодирования : libebml v1.3.0 + libmatroska v1.4.1
_STATISTICS_WRITING_APP : mkvmerge v7.4.0 ('Circles') 64bit built on Dec 12 2014 12:19:56
_STATISTICS_WRITING_DATE_UTC : 2015-04-30 17:24:38
_STATISTICS_TAGS : BPS DURATION NUMBER_OF_FRAMES NUMBER_OF_BYTES
DURATION : 01:38:14.528000000
NUMBER_OF_FRAMES : 184204
NUMBER_OF_BYTES : 330093568
Видео
Идентификатор : 1
Формат : AVC
Формат/Информация : Advanced Video Codec
Профиль формата : High@L4.1
Параметр CABAC формата : Да
Параметр ReFrames формата : 9 кадров
Идентификатор кодека : V_MPEG4/ISO/AVC
Продолжительность : 1 ч. 38 м.
Битрейт : 1665 Кбит/сек
Ширина : 720 пикселей
Высота : 456 пикселей
Соотношение сторон : 2,25:1
Режим частоты кадров : Постоянный
Частота кадров : 25,000 кадров/сек
Цветовое пространство : YUV
Субдискретизация насыщенности : 4:2:0
Битовая глубина : 8 бит
Тип развёртки : Прогрессивная
Бит/(Пиксели*Кадры) : 0.203
Размер потока : 1,11 Гбайт (77%)
Заголовок : by_bog3417
Библиотека кодирования : x264 core 146 r2538 121396c
Настройки программы : cabac=1 / ref=9 / deblock=1:-3:-3 / analyse=0x3:0x33 / me=tesa / subme=11 / psy=1 / psy_rd=1.05:0.15 / mixed_ref=1 / me_range=48 / chroma_me=1 / trellis=2 / 8x8dct=1 / cqm=0 / deadzone=21,11 / fast_pskip=0 / chroma_qp_offset=-3 / threads=12 / lookahead_threads=4 / sliced_threads=0 / nr=0 / decimate=0 / interlaced=0 / bluray_compat=0 / constrained_intra=0 / bframes=9 / b_pyramid=2 / b_adapt=2 / b_bias=0 / direct=3 / weightb=1 / open_gop=1 / weightp=2 / keyint=240 / keyint_min=23 / scenecut=40 / intra_refresh=0 / rc=2pass / mbtree=0 / bitrate=1665 / ratetol=1.0 / qcomp=0.60 / qpmin=0 / qpmax=69 / qpstep=4 / cplxblur=20.0 / qblur=0.5 / ip_ratio=1.40 / pb_ratio=1.30 / aq=3:0.90
Язык : English
Default : Да
Forced : Нет
_STATISTICS_WRITING_APP : mkvmerge v7.4.0 ('Circles') 64bit built on Dec 12 2014 12:19:56
_STATISTICS_WRITING_DATE_UTC : 2015-04-30 17:24:38
_STATISTICS_TAGS : BPS DURATION NUMBER_OF_FRAMES NUMBER_OF_BYTES
DURATION : 01:38:14.560000000
NUMBER_OF_FRAMES : 147364
NUMBER_OF_BYTES : 1225872999
Аудио
Идентификатор : 2
Формат : AC-3
Формат/Информация : Audio Coding 3
Расширение режима : CM (complete main)
Параметр Endianness формата : Big
Идентификатор кодека : A_AC3
Продолжительность : 1 ч. 38 м.
Вид битрейта : Постоянный
Битрейт : 448 Кбит/сек
Каналы : 6 каналов
Расположение каналов : Front: L C R, Side: L R, LFE
Частота : 48,0 КГц
Битовая глубина : 16 бит
Метод сжатия : С потерями
Размер потока : 315 Мбайт (21%)
Язык : Russian
Default : Да
Forced : Нет
00:00:00.000 : en:00:00:00.000
00:07:47.520 : en:00:07:47.520
00:15:44.880 : en:00:15:44.880
00:25:11.000 : en:00:25:11.000
00:31:46.040 : en:00:31:46.040
00:40:29.960 : en:00:40:29.960
00:47:52.240 : en:00:47:52.240
00:56:57.280 : en:00:56:57.280
01:05:32.680 : en:01:05:32.680
01:10:46.920 : en:01:10:46.920
01:17:09.920 : en:01:17:09.920
01:21:52.640 : en:01:21:52.640

Скриншоты


-
[Профиль] [ЛС]
Показать сообщения:    

Текущее время: Сегодня 07:59

Часовой пояс: GMT



Вы не можете начинать темы
Вы не можете отвечать на сообщения
Вы не можете редактировать свои сообщения
Вы не можете удалять свои сообщения
Вы не можете голосовать в опросах
Вы не можете прикреплять файлы к сообщениям
Вы не можете скачивать файлы