Лоскутик и Облако (Раса Страутмане) [1977, мультфильм, сказка, DVB]

 
Автор Сообщение

TorrentFilm ®

Пол:

Стаж: 1 год 11 месяцев

Сообщений: 7741



Награды: Нет

Торрент-статистика

Создавать темы 03-Янв-2016 00:04

[Цитировать]

Лоскутик и Облако
Жанр: мультфильм, сказка
Год выпуска: 1977
Продолжительность: 00:55:12
Режиссёр: Раса Страутмане
Описание: мультфильм о том, как давным-давно, в далеком королевстве... все бы хорошо, но вот воды не было почти совсем... каждый глоток - только за конкретные наличные и не маленькие. И продолжалось это довльно долго, пока в пределы того королевства не забрело молоденькое, но весьма хулиганское облачко ...
Доп. информация: по мотивам одноименной сказки Софьи Прокофьевой
мультфильм транслировался без разделения на серии (главы) !

Релиз группы:
Трансляция спутникового канала: "Карусель"
Качество видео: DVB
Формат видео: MPEG-PS
Видео: MPEG2 Video, 720x576, 25 fps, 3500 kbps
Аудио: MPEG Audio, 2 сh, 48 kHz, 192 kbps

MediaInfo

D:\Лоскутик и облако. (1977)_DVB by SLuMeP.mpg
General
Complete name : D:\Лоскутик и облако. (1977)_DVB by SLuMeP
Format : MPEG-PS
File size : 1.46 GiB
Duration : 55mn 12s
Overall bit rate mode : Variable
Overall bit rate : 3 777 Kbps
Writing library : (c) 1998-2010 Womble Multimedia, Inc. / MPEG Video Wizard DVD 5.0.0.114 (01/2010) / Apr 20 2010
Video #224
ID : 224 (0xE0)
Format : MPEG Video
Format version : Version 2
Format profile : Main@Main
Format settings, BVOP : Yes
Format settings, Matrix : Custom
Duration : 55mn 12s
Bit rate mode : Variable
Bit rate : 3 509 Kbps
Maximum bit rate : 5 000 Kbps
Width : 720 pixels
Height : 576 pixels
Display aspect ratio : 4:3
Frame rate : 25.000 fps
Standard : PAL
Color space : YUV
Chroma subsampling : 4:2:0
Bit depth : 8 bits
Scan type : Interlaced
Scan order : Top Field First
Compression mode : Lossy
Bits/(Pixel*Frame) : 0.338
Stream size : 1.35 GiB (93%)
Writing library : (c) 1998-2010 Womble Multimedia, Inc. / MPEG Video Wizard DVD 5.0.0.114 (01/2010) / Apr 20 2010
Audio #192
ID : 192 (0xC0)
Format : MPEG Audio
Format version : Version 1
Format profile : Layer 2
Duration : 55mn 12s
Bit rate mode : Constant
Bit rate : 192 Kbps
Channel(s) : 2 channels
Sampling rate : 48.0 KHz
Compression mode : Lossy
Stream size : 75.8 MiB (5%)
Menu

Скриншоты

[Профиль] [ЛС]
Показать сообщения:    

Текущее время: Сегодня 05:01

Часовой пояс: GMT



Вы не можете начинать темы
Вы не можете отвечать на сообщения
Вы не можете редактировать свои сообщения
Вы не можете удалять свои сообщения
Вы не можете голосовать в опросах
Вы не можете прикреплять файлы к сообщениям
Вы не можете скачивать файлы