Лопес / Lopez [S01] (2016) WEBRip 720p, HDTV 720p | KinoView

 
Автор Сообщение

достали все ®

Пол:

Стаж: 1 год 8 месяцев

Сообщений: 6524



Награды: 12 (Подробнее)

Top Releaser 3 (Количество: 1) Mega Seeder 5 (Количество: 1) Top Releaser 2 (Количество: 1)
Торрент-статистика

Создавать темы 21-Авг-2016 03:23

[Цитировать]

«Сезон: 1 / Серии: 1-12 (12)»- Информация о сериале
Название: Лопес
Оригинальное название: Lopez
Год выхода: 2016
Страна: США
Студия: Dakota Pictures / Chapman & Leonard Studio Equipment
Жанр: комедия
Продолжительность: 12 x ~20 мин.
Перевод: Любительский (многоголосый закадровый) - [KinoView] ex-Несмертельное оружие
Cубтитры: отсутствуют
Режиссер: Трой Миллер
В ролях: Джордж Лопес, Энтони Кампос, Эшли Самора, Зик Николсон, Остин Минкс, Федерико Дордеи, Алехандро Карденас, Хэнк Чен, Айман Самман, Джеймс М. Коннор, Стивен Ли Аллен, Стивен Калп, Гейб Еггерлинг, Дебора Пуэтте, Том Бейер и др.
Описание:
Тот самый момент, когда ты слишком богат, чтобы вернуться к своим латиноамериканским корням в рабочий класс, и слишком смуглый, чтобы ощущать себя комфортно в окружении гламурной тусовки. Да, быть Джорджем Лопесом непросто.

Файл
Качество: WEB-DL 720p - Серии: 01-05, HDTV 720p - Серии: 06-12
Формат: MKV
Видео кодек: H264
Аудио кодек: AC3
Видео: 1280x720 (16:9), 23.976 fps, ~3745 Kbps, 0.149 bit/pixel
| Аудио #1: 48 kHz, AC3 Dolby Digital, 2.0, ~192.00 kbps | Rus | MVO
| Аудио #2: 48 kHz, AC3 Dolby Digital, 2.0, ~192.00 kbps | Eng | Original-Релиз от: KinoView-

Скриншоты


-

Список серий в раздаче

Эпизод: 01 - «Раб на день» (Slave for a Day)
Эпизод: 02 - «Джордж идет в гору» (George Takes a Hike)
Эпизод: 03 - «Падение и засуха в Беверли-Хиллз» (Down and Drought in Beverly Hills)
Эпизод: 04 - «Вечеринка у Джорджа» (George's Party)
Эпизод: 05 - «Земля колец» (Land of the Rings)
Эпизод: 06 - «Джордж ведущий гольф турнира» (George Hosts a Golf Tournament)
Эпизод: 07 - «Крутая вечеринка на шестнадцатилетие» (My $uper $weet $ixteen)
Эпизод: 08 - «Джордж удваивает ставки» (George Doubles Down)
Эпизод: 09 - «Прожарка Джорджа» (George Gets Roasted)
Эпизод: 10 - «Джордж нуждается в Лас-Вегасе» (George Needs Vegas)
Эпизод: 11 - «Страх и любовь на пути в Лас-Вегас» (Fear and Loving on the Way to Las Vegas)
Эпизод: 12 - «Джордж идет ва-банк» (George Goes All In)
-

MediaInfo

General
Unique ID : 196108764664780097561029794705795952528 (0x93892C99D7FE599F86984B5AFFEBAF90)
Complete name : Lopez.S01E01.Slave.for.a.Day.WEBRip.720p.H.264.RUS.-KinoView.mkv
Format : Matroska
Format version : Version 2
File size : 550 MiB
Duration : 20mn 32s
Overall bit rate mode : Variable
Overall bit rate : 3 743 Kbps
Movie name : Лопес / Lopez / Сезон: 1 / Эпизод: 01 - Раб на день
Encoded date : UTC 2016-05-20 10:28:15
Writing application : mkvmerge v5.2.1 ('A Far Off Place') built on Jan 2 2012 23:21:10
Writing library : libebml v1.2.3 + libmatroska v1.3.0
Video
ID : 1
Format : AVC
Format/Info : Advanced Video Codec
Format profile : Main@L3.2
Format settings, CABAC : Yes
Format settings, ReFrames : 4 frames
Muxing mode : Header stripping
Codec ID : V_MPEG4/ISO/AVC
Duration : 20mn 32s
Bit rate mode : Variable
Bit rate : 3 285 Kbps
Maximum bit rate : 6 808 Kbps
Width : 1 280 pixels
Height : 720 pixels
Display aspect ratio : 16:9
Frame rate mode : Constant
Frame rate : 23.976 (24000/1001) fps
Color space : YUV
Chroma subsampling : 4:2:0
Bit depth : 8 bits
Scan type : Progressive
Bits/(Pixel*Frame) : 0.149
Stream size : 483 MiB (88%)
Title : Релиз от: KinoView
Language : English
Default : Yes
Forced : No
Color range : Limited
Audio #1
ID : 2
Format : AC-3
Format/Info : Audio Coding 3
Mode extension : CM (complete main)
Format settings, Endianness : Big
Muxing mode : Header stripping
Codec ID : A_AC3
Duration : 20mn 32s
Bit rate mode : Constant
Bit rate : 192 Kbps
Channel(s) : 2 channels
Channel positions : Front: L R
Sampling rate : 48.0 KHz
Frame rate : 31.250 fps (1536 spf)
Compression mode : Lossy
Stream size : 28.2 MiB (5%)
Title : MVO (KinoView)
Language : Russian
Default : Yes
Forced : No
Audio #2
ID : 3
Format : AC-3
Format/Info : Audio Coding 3
Mode extension : CM (complete main)
Format settings, Endianness : Big
Muxing mode : Header stripping
Codec ID : A_AC3
Duration : 20mn 32s
Bit rate mode : Constant
Bit rate : 192 Kbps
Channel(s) : 2 channels
Channel positions : Front: L R
Sampling rate : 48.0 KHz
Frame rate : 31.250 fps (1536 spf)
Compression mode : Lossy
Stream size : 28.2 MiB (5%)
Title : Original
Language : English
Default : No
Forced : No
-
[Профиль] [ЛС]
Показать сообщения:    

Текущее время: Сегодня 14:02

Часовой пояс: GMT



Вы не можете начинать темы
Вы не можете отвечать на сообщения
Вы не можете редактировать свои сообщения
Вы не можете удалять свои сообщения
Вы не можете голосовать в опросах
Вы не можете прикреплять файлы к сообщениям
Вы не можете скачивать файлы