Лондонские каникулы / A Royal Night Out (Джулиан Джаррольд / Julian Jarrold) [2015, Великобритания, триллер, драма, мелодрама, WEB-DLRip] Dub iTunes

 
Автор Сообщение

TorrentFilm ®

Пол:

Стаж: 2 года

Сообщений: 7741



Награды: Нет

Торрент-статистика

Создавать темы 27-Июл-2015 00:08

[Цитировать]

Лондонские каникулы / A Royal Night Out
Страна: Великобритания
Жанр: триллер, драма, мелодрама
Год выпуска: 2015
Продолжительность: 01:32:50
Перевод: Профессиональный (дублированный) iTunes
Cубтитры: нет
Оригинальная аудиодорожка: нет
Режиссер: Джулиан Джаррольд / Julian Jarrold
В ролях: Сара Гадон, Эмили Уотсон, Джек Рейнор, Руперт Эверетт, Бел Паули, Роджер Аллам, Джек Гордон, Анастасия Харрольд, Джек Лэски, Рут Шин
Описание: День Победы, 1945 г., Англия, королевская семья готовится к торжественным выступлениям в честь завершения кровопролитной войны, а в городе уже во всю идут празднества и гулянки, окунуться в которые принцессе Маргарет и ее сестре Элизабет было бы большим удовольствием после стольких лет «тяжелой» королевской жизни под надзором всех и вся. Знатные родители, пусть и нехотя, но отпускают дочерей на праздник с тем условием, что к ним приставят двух сопровождающих, только вот, как это часто бывает в подобных ситуациях, им удается ускользнуть их под взора надсмотрщиков, что приводит к тому, что их ждет, наверное, самая длинная, запоминающаяся и свободная ночь в их жизни…
Доп. информация: http://www.imdb.com/title/tt1837562/ 6.4
http://www.kinopoisk.ru/film/582136/ 7.1
Сэмпл: http://sendfile.su/1140599
Качество видео: WEB-DLRip
Формат видео: AVI
Видео: XviD, 1 850 kb/s, 720x304, 25.000 fps
Аудио: Русский, AC3, 384 kb/s, 6 ch, 48.0 KHz

MediaInfo

General
Complete name : C:\1ondonskie.Kan1kuli.2015.D.WEB-DLRip.avi
Format : AVI
Format/Info : Audio Video Interleave
File size : 1.45 GiB
Duration : 1h 32mn
Overall bit rate : 2 243 Kbps
Writing application : VirtualDubMod 1.5.10.3 | www.virtualdub-fr.org || (build 2550/release)
Writing library : VirtualDubMod build 2550/release
Video
ID : 0
Format : MPEG-4 Visual
Format profile : Advanced Simple@L5
Format settings, BVOP : 1
Format settings, QPel : No
Format settings, GMC : No warppoints
Format settings, Matrix : Custom
Codec ID : XVID
Codec ID/Hint : XviD
Duration : 1h 32mn
Bit rate : 1 850 Kbps
Width : 720 pixels
Height : 304 pixels
Display aspect ratio : 2.35:1
Frame rate : 25.000 fps
Color space : YUV
Chroma subsampling : 4:2:0
Bit depth : 8 bits
Scan type : Progressive
Compression mode : Lossy
Bits/(Pixel*Frame) : 0.338
Stream size : 1.20 GiB (82%)
Writing library : XviD 73
Audio
ID : 1
Format : AC-3
Format/Info : Audio Coding 3
Mode extension : CM (complete main)
Format settings, Endianness : Big
Codec ID : 2000
Duration : 1h 32mn
Bit rate mode : Constant
Bit rate : 384 Kbps
Channel(s) : 6 channels
Channel positions : Front: L C R, Side: L R, LFE
Sampling rate : 48.0 KHz
Compression mode : Lossy
Stream size : 255 MiB (17%)
Alignment : Split accross interleaves
Interleave, duration : 40 ms (1.00 video frame)
Interleave, preload duration : 500 ms

Скриншот c названием фильма

[Профиль] [ЛС]
Кто просматривает тему:

Форум Тема Автор Размер
Фильмы (HD DVD, Blu-ray и BDRemux) Агент Коди Бэнкс 2: Пункт назначения - Лондон / Agent Cody Banks 2: Destination London (2004) DVD-9 | D, P, A sergej644 6.46 GB
Фильмы (HD Rips | 720p, 1080p) Безумные преподы: Миссия в Лондон / Les profs 2 (2015) BDRip 720p | L2 BOSS 4.49 GB
Фильмы 2015 года Безумные преподы: Миссия в Лондон / Les profs 2 (2015) HDRip | L2 BOSS 1.46 GB
Путешествия и приключения Белый клык (Джек Лондон) [2011, Классика, приключения, аудиокнига, MP3, 112 kbps, Станислав Федосов ] Magnat 453 MB
Фильмы (HD Rips | 720p, 1080p) Дневник наёмного убийцы / Diary of a Hitman (Рой Лондон / Roy London) [1991, США, триллер, драма, криминал, HDTV 1080i] DVO (НТВ+) + AVO (А. Гаврилов) + AVO (С. Визгунов) + Sub Eng + Original Eng bot 3.65 GB
Отечественные cериалы Лондонград. Знай наших [01-28 из 28] (2015) WEB-DLRip достали все 16.41 GB
Зарубежные сериалы Лондонские Ирландцы / London Irish [S01] (2013) HDTVRip | Effx Белочка 1.19 GB
Фильмы (HD Rips | 720p, 1080p) Лондонские каникулы / A Royal Night Out (2015) WEB-DL 1080p | iTunes достали все 3.14 GB
Показать сообщения:    

Текущее время: Сегодня 14:29

Часовой пояс: GMT



Вы не можете начинать темы
Вы не можете отвечать на сообщения
Вы не можете редактировать свои сообщения
Вы не можете удалять свои сообщения
Вы не можете голосовать в опросах
Вы не можете прикреплять файлы к сообщениям
Вы не можете скачивать файлы