Лондонские каникулы / A Royal Night Out (2015) WEB-Rip от GeneralFilm | Чистый звук

 
Автор Сообщение

достали все ®

Пол:

Стаж: 1 год 8 месяцев

Сообщений: 6627



Награды: 12 (Подробнее)

Mega Seeder 1 (Количество: 1) Mega Releaser 2 (Количество: 1) Top Releaser 2 (Количество: 1)
Торрент-статистика

Создавать темы 22-Июл-2015 10:22

[Цитировать]

Информация о фильме
Название: Лондонские каникулы
Оригинальное название: A Royal Night Out
Год выхода: 2015
Жанр: триллер, драма, мелодрама
Режиссер: Джулиан Джаррольд
В ролях: Сара Гадон, Эмили Уотсон, Джек Рейнор, Руперт Эверетт, Бел Паули, Роджер Аллам, Джек Гордон, Анастасия Харрольд, Джек Лэски, Рут Шин
О фильме: Во время Дня Победы в Европе в 1945 году принцесса Маргарет и ее сестра Элизабет решают покинуть пределы Букингемского дворца на ночь, там они сталкиваются с романтическими приключениями и опасностью…
Выпущено: Великобритания / Ecosse Films, Filmgate Films
Продолжительность: 01:32:50
Озвучивание: Дублированное [Чистый звук] Официальный
Файл
Формат: avi
Качество: WEB-Rip
Видео: XviD, 920 kb/s, 688x288
Аудио: MP3, 128 kb/s (2 ch)

МедиаИнфо

Общее
Полное имя : Londonskie.kanikuly.2015.XviD.WEB-Rip.by.GeneralFilm.avi
Формат : AVI
Формат/Информация : Audio Video Interleave
Размер файла : 702 Мбайт
Продолжительность : 1 ч. 32 м.
Общий поток : 1057 Кбит/сек
Программа кодирования : VirtualDubMod 1.5.10.3 | www.virtualdub-fr.org || (build 2550/release)
Библиотека кодирования : VirtualDubMod build 2550/release
Видео
Идентификатор : 0
Формат : MPEG-4 Visual
Профиль формата : Advanced Simple@L5
Параметр BVOP формата : 1
Параметр QPel формата : Нет
Параметр GMC формата : Без точки перехода
Параметр матрицы формата : Выборочная
Идентификатор кодека : XVID
Идентификатор кодека/Подсказка : XviD
Продолжительность : 1 ч. 32 м.
Битрейт : 920 Кбит/сек
Ширина : 688 пикселей
Высота : 288 пикселей
Соотношение сторон : 2,40:1
Частота кадров : 24,000 кадра/сек
Цветовое пространство : YUV
Субдискретизация насыщенности : 4:2:0
Битовая глубина : 8 бит
Тип развёртки : Прогрессивная
Метод сжатия : С потерями
Бит/(Пиксели*Кадры) : 0.193
Размер потока : 611 Мбайт (87%)
Библиотека кодирования : XviD 73
Аудио
Идентификатор : 1
Формат : MPEG Audio
Версия формата : Version 1
Профиль формата : Layer 3
Идентификатор кодека : 55
Идентификатор кодека/Подсказка : MP3
Продолжительность : 1 ч. 32 м.
Вид битрейта : Постоянный
Битрейт : 128 Кбит/сек
Каналы : 2 канала
Частота : 48,0 КГц
Метод сжатия : С потерями
Размер потока : 85,0 Мбайт (12%)
Выравнивание : Соединение по промежуткам
Продолжительность промежутка : 42 мс. (1,00 видеокадр)
Время предзагрузки промежутка : 504 мс.
Библиотека кодирования : LAME3.99r
Настройки программы : -m s -V 4 -q 0 -lowpass 17 -b 128

Скриншоты



[Профиль] [ЛС]
Кто просматривает тему:

Форум Тема Автор Размер
Фильмы (HD DVD, Blu-ray и BDRemux) Агент Коди Бэнкс 2: Пункт назначения - Лондон / Agent Cody Banks 2: Destination London (2004) DVD-9 | D, P, A sergej644 6.46 GB
Фильмы (HD Rips | 720p, 1080p) Безумные преподы: Миссия в Лондон / Les profs 2 (2015) BDRip 720p | L2 BOSS 4.49 GB
Фильмы 2015 года Безумные преподы: Миссия в Лондон / Les profs 2 (2015) HDRip | L2 BOSS 1.46 GB
Путешествия и приключения Белый клык (Джек Лондон) [2011, Классика, приключения, аудиокнига, MP3, 112 kbps, Станислав Федосов ] Magnat 453 MB
Фильмы (HD Rips | 720p, 1080p) Дневник наёмного убийцы / Diary of a Hitman (Рой Лондон / Roy London) [1991, США, триллер, драма, криминал, HDTV 1080i] DVO (НТВ+) + AVO (А. Гаврилов) + AVO (С. Визгунов) + Sub Eng + Original Eng bot 3.65 GB
Отечественные cериалы Лондонград. Знай наших [01-28 из 28] (2015) WEB-DLRip достали все 16.41 GB
Зарубежные сериалы Лондонские Ирландцы / London Irish [S01] (2013) HDTVRip | Effx Белочка 1.19 GB
Фильмы (HD Rips | 720p, 1080p) Лондонские каникулы / A Royal Night Out (2015) WEB-DL 1080p | iTunes достали все 3.14 GB
Показать сообщения:    

Текущее время: Сегодня 10:14

Часовой пояс: GMT



Вы не можете начинать темы
Вы не можете отвечать на сообщения
Вы не можете редактировать свои сообщения
Вы не можете удалять свои сообщения
Вы не можете голосовать в опросах
Вы не можете прикреплять файлы к сообщениям
Вы не можете скачивать файлы