Ломая поверхность / Breaking Surface (2020) WEB-DL 1080p | L1

 
Author Message

Swager ®

Gender:

Longevity: 4 years 9 months

Posts: 2145



: 4 ()

За внесенный вклад в развитие сайта (1) Top Releaser 2 (1) Mega Seeder 2 (1)
Торрент-статистика

Post 28-Jun-2020 12:44

[Quote]

Информация о фильме
Название: Ломая поверхность
Оригинальное название: Breaking Surface
Год выхода: 2020
Жанр: Боевик, триллер, драма
Режиссер: Йоахим Хеден
В ролях: Муа Гаммель, Мадлен Мартин, Трине Вигген, Джитс Джонатан Буитник, Реми Алашкар, Алессио Баррето, Има Дженни Халлберг, Лена Хоуп, Томас Хой, Элль Корс
О фильме:
Зимний дайвинг в Норвегии превращается в отчаянную гонку на время для двух сестер, когда они решают погрузиться на морскую глубину, где их ждёт череда драматических событий.

Страна: Швеция, Норвегия, Бельгия
Студия: Way Feature Films, Umedia, Film i Skåne
Продолжительность: 01:18:07
Перевод: Любительский одноголосый | Хихидок
Файл
Кодек: AVC
Качество: WEB-DL 1080p
Видео: MPEG-4 AVC, 4982 Kбит/с, 1920x1080, 25.000 кадр/с
Аудио #1: Русский (АС3, 6 ch, 384 Кбит/с, 48.0 KHz) Любительский (одноголосый, закадровый) Дмитрий Хихидок
Субтитры: Нет
► Без Рекламы!
Трейлер

MediaInfo

General
Unique ID : 246665840105830260576708455255643084621 (0xB9921CDE9B97DB1181E283E30D5D574D)
Complete name : Breaking.Surface.2020.WEB-DL.1080p.mkv
Format : Matroska
Format version : Version 4
File size : 2.93 GiB
Duration : 1 h 18 min
Overall bit rate mode : Variable
Overall bit rate : 5 368 kb/s
Encoded date : UTC 2020-06-27 18:11:27
Writing application : mkvmerge v7.1.0 ('Good Love') 64bit built on Jul 27 2014 13:06:55
Writing library : libebml v1.3.0 + libmatroska v1.4.1
Video
ID : 1
Format : AVC
Format/Info : Advanced Video Codec
Format profile : High@L4.1
Format settings : CABAC / 3 Ref Frames
Format settings, CABAC : Yes
Format settings, Reference fra : 3 frames
Format settings, GOP : M=3, N=50
Codec ID : V_MPEG4/ISO/AVC
Duration : 1 h 18 min
Bit rate mode : Variable
Bit rate : 4 982 kb/s
Maximum bit rate : 7 200 kb/s
Width : 1 920 pixels
Height : 1 080 pixels
Display aspect ratio : 16:9
Frame rate mode : Constant
Frame rate : 25.000 FPS
Color space : YUV
Chroma subsampling : 4:2:0
Bit depth : 8 bits
Scan type : Progressive
Bits/(Pixel*Frame) : 0.096
Stream size : 2.72 GiB (93%)
Language : English
Default : Yes
Forced : No
Audio
ID : 2
Format : AC-3
Format/Info : Audio Coding 3
Commercial name : Dolby Digital
Codec ID : A_AC3
Duration : 1 h 18 min
Bit rate mode : Constant
Bit rate : 384 kb/s
Channel(s) : 6 channels
Channel layout : L R C LFE Ls Rs
Sampling rate : 48.0 kHz
Frame rate : 31.250 FPS (1536 SPF)
Compression mode : Lossy
Stream size : 215 MiB (7%)
Title : Хихидок
Language : Russian
Service kind : Complete Main
Default : Yes
Forced : No

Скриншоты

[Profile] [PM]
Display posts from previous:    

The time now is: Today 21:21

All times are GMT



You cannot post new topics in this forum
You cannot reply to topics in this forum
You cannot edit your posts in this forum
You cannot delete your posts in this forum
You cannot vote in polls in this forum
You cannot attach files in this forum
You cannot download files in this forum