Лолита / Lolita (1997) BDRip 720p

 
Автор Сообщение

sergej644 ®

Пол:

Стаж: 4 года 11 месяцев

Сообщений: 6043

Откуда: Soviet Union



Награды: Нет

Торрент-статистика

Создавать темы 06-Дек-2014 05:50

[Цитировать]

Информация о фильме
Название: Лолита
Оригинальное название: Lolita
Год выхода: 1997
Жанр: драма, мелодрама
Режиссер: Эдриан Лайн
В ролях: Джереми Айронс, Доминик Суэйн, Мелани Гриффит, Фрэнк Ланджелла, Сюзанн Шеперд, Кит Реддин, Эрин Дж. Дин, Джоан Гловер, Пэт Пьер Перкинс, Эд Грейди
О фильме: Преподаватель французской литературы Гумберт — европеец англо-швейцарского происхождения — приезжает в маленький американский городок в Новой Англии. Он хорошо воспитан, образован, остроумен и пользуется успехом у женщин.
Но его душа больна воспоминаниями о первой любви. И, встретив 12-летнюю Лолиту, Гумберт надеется вновь обрести потерянный рай…

Выпущено: Lolita Productions
Продолжительность: 02:17:40
Перевод: Многоголосый закадровый (Twister) + Дублированный
Файл
Кодек: x264
Качество: BDRip (источник: Blu-ray Disc)
Видео: 1280x690 (1,85:1), 24 fps, 6980 kbps
Аудио #1: AC-3, 6 ch, 448 kbps (Многоголосый закадровый, Twister)
Аудио #2: AC-3, 1 ch, 192 kbps (Дубляж)
Аудио #3: AC-3, 6 ch, 448 kbps (Original)
Субтитры: Русские
Скачать: сэмпл
Скриншоты

MI

Общее
Уникальный идентификатор : 201666862297277245145641801836102779328 (0x97B79FF8B7F4DF9F89FB479E54DD81C0)
Полное имя : Lolita.1997.BDRip.720p.Rus.Eng.mkv
Формат : Matroska
Версия формата : Version 2
Размер файла : 7,76 Гбайт
Продолжительность : 2 ч. 17 м.
Общий поток : 8067 Кбит/сек
Название фильма : Лолита / Lolita (1997)
Дата кодирования : UTC 2014-12-04 09:40:17
Программа кодирования : mkvmerge v5.8.0 ('No Sleep / Pillow') built on Sep 2 2012 15:37:04
Библиотека кодирования : libebml v1.2.3 + libmatroska v1.3.0
Видео
Идентификатор : 1
Формат : AVC
Формат/Информация : Advanced Video Codec
Профиль формата : High@L4.1
Параметр CABAC формата : Да
Параметр ReFrames формата : 8 кадров
Идентификатор кодека : V_MPEG4/ISO/AVC
Продолжительность : 2 ч. 17 м.
Битрейт : 6980 Кбит/сек
Ширина : 1280 пикселей
Высота : 690 пикселей
Соотношение сторон : 1,85:1
Режим частоты кадров : Постоянный
Частота кадров : 24,000 кадра/сек
Цветовое пространство : YUV
Субдискретизация насыщенности : 4:2:0
Битовая глубина : 8 бит
Тип развёртки : Прогрессивная
Бит/(Пиксели*Кадры) : 0.329
Размер потока : 6,56 Гбайт (85%)
Заголовок : Release by AlexKa
Библиотека кодирования : x264 core 142 r2491 24e4fed
Настройки программы : cabac=1 / ref=8 / deblock=1:-3:-3 / analyse=0x3:0x133 / me=umh / subme=11 / psy=1 / psy_rd=1.00:0.20 / mixed_ref=1 / me_range=32 / chroma_me=1 / trellis=2 / 8x8dct=1 / cqm=0 / deadzone=21,11 / fast_pskip=0 / chroma_qp_offset=-3 / threads=12 / lookahead_threads=3 / sliced_threads=0 / nr=0 / decimate=0 / interlaced=0 / bluray_compat=0 / constrained_intra=0 / bframes=12 / b_pyramid=2 / b_adapt=2 / b_bias=0 / direct=3 / weightb=1 / open_gop=0 / weightp=2 / keyint=240 / keyint_min=24 / scenecut=40 / intra_refresh=0 / rc=2pass / mbtree=0 / bitrate=6980 / ratetol=1.0 / qcomp=0.60 / qpmin=0 / qpmax=69 / qpstep=4 / cplxblur=20.0 / qblur=0.5 / ip_ratio=1.40 / pb_ratio=1.30 / aq=1:0.80
Язык : English
Аудио #1
Идентификатор : 2
Формат : AC-3
Формат/Информация : Audio Coding 3
Расширение режима : CM (complete main)
Параметр Endianness формата : Big
Идентификатор кодека : A_AC3
Продолжительность : 2 ч. 17 м.
Вид битрейта : Постоянный
Битрейт : 448 Кбит/сек
Каналы : 6 каналов
Расположение каналов : Front: L C R, Side: L R, LFE
Частота : 48,0 КГц
Битовая глубина : 16 бит
Метод сжатия : С потерями
Размер потока : 441 Мбайт (6%)
Заголовок : Многоголосый закадровый, Twister
Язык : Russian
Аудио #2
Идентификатор : 3
Формат : AC-3
Формат/Информация : Audio Coding 3
Расширение режима : CM (complete main)
Параметр Endianness формата : Big
Идентификатор кодека : A_AC3
Продолжительность : 2 ч. 17 м.
Вид битрейта : Постоянный
Битрейт : 192 Кбит/сек
Каналы : 1 канал
Расположение каналов : Front: C
Частота : 48,0 КГц
Битовая глубина : 16 бит
Метод сжатия : С потерями
Размер потока : 189 Мбайт (2%)
Заголовок : Дубляж
Язык : Russian
Аудио #3
Идентификатор : 4
Формат : AC-3
Формат/Информация : Audio Coding 3
Расширение режима : CM (complete main)
Параметр Endianness формата : Big
Идентификатор кодека : A_AC3
Продолжительность : 2 ч. 17 м.
Вид битрейта : Постоянный
Битрейт : 448 Кбит/сек
Каналы : 6 каналов
Расположение каналов : Front: L C R, Side: L R, LFE
Частота : 48,0 КГц
Битовая глубина : 16 бит
Метод сжатия : С потерями
Размер потока : 441 Мбайт (6%)
Заголовок : Original
Язык : English
Текст
Идентификатор : 5
Формат : UTF-8
Идентификатор кодека : S_TEXT/UTF8
Идентификатор кодека/Информация : UTF-8 Plain Text
Заголовок : Rus
Язык : Russian
Меню
00:00:00.000 : :Chapter 01
00:09:26.500 : :Chapter 02
00:19:31.875 : :Chapter 03
00:27:41.458 : :Chapter 04
00:35:54.916 : :Chapter 05
00:44:44.208 : :Chapter 06
00:52:00.916 : :Chapter 07
01:00:32.375 : :Chapter 08
01:09:01.000 : :Chapter 09
01:17:14.083 : :Chapter 10
01:22:59.708 : :Chapter 11
01:27:44.000 : :Chapter 12
01:35:53.916 : :Chapter 13
01:43:08.625 : :Chapter 14
01:50:24.625 : :Chapter 15
02:01:13.083 : :Chapter 16
02:10:06.250 : :Chapter 17
02:12:36.708 : :Chapter 18
02:17:39.041 : :Chapter 19

x264

x264 [info]: frame I:1291 Avg QP:16.62 size:138956
x264 [info]: frame P:37482 Avg QP:18.74 size: 59829
x264 [info]: frame B:159468 Avg QP:20.91 size: 29984
x264 [info]: consecutive B-frames: 1.5% 1.6% 5.3% 8.7% 11.3% 54.8% 5.6% 2.0% 1.6% 2.0% 2.1% 2.9% 0.7%
[Профиль] [ЛС]

Создавать темы 06-Авг-2015 22:56 (спустя 8 месяцев)

Топик был перенесен из форума Фильмы до 2014 года в форум Фильмы до 2012 года
sergej644
 
Кто просматривает тему:

Форум Тема Автор Размер
Фильмы (HD DVD, Blu-ray и BDRemux) Лолита / Lolita (Адриан Лайн) [1997 г., драма, мелодрама] Blu-ray 1080 Magnat 46.3 GB
Показать сообщения:    

Текущее время: Сегодня 02:26

Часовой пояс: GMT



Вы не можете начинать темы
Вы не можете отвечать на сообщения
Вы не можете редактировать свои сообщения
Вы не можете удалять свои сообщения
Вы не можете голосовать в опросах
Вы не можете прикреплять файлы к сообщениям
Вы не можете скачивать файлы