Ложь прошлого / Past Lies (Терри Ингрэм / Terry Ingram) [2008, Канада, Драма, DVDRip] DVO

 
Автор Сообщение

painkiller ®

Стаж: 2 года 3 месяца

Сообщений: 582



Награды: Нет

Торрент-статистика

Создавать темы 14-Авг-2014 13:01

[Цитировать]

Ложь прошлого / Past Lies
Страна: Канада
Жанр: Драма
Год выпуска: 2008
Продолжительность: 01:25:23
Перевод: Профессиональный (двухголосый закадровый)
Cубтитры: нет
Режиссер: Терри Ингрэм / Terry Ingram
В ролях: Эд Эндерс, Джулия Андерсон, Пол Биттанте, Дженнифер Коппинг, Агам Дарши, Николь Эггерт, Джейсон Гриффит, Чела Хорсдэл, Луис Хавьер, Колин Лоуренс
Описание: У Ким Фёрст есть всё: крутой джип, карьера, любящие муж и сын. Но когда её бывший муж Лоуренс Геллер выходит из тюрьмы, Ким приходится взглянуть в лицо прошлому, которое она так хотела забыть. Лоуренс начинает преследовать и шантажом пытается заставить Ким помочь ему украсть четвёртый по величине бриллиант в мире. Камень выставлен в музее, где работает муж Ким.
Сэмпл: http://multi-up.com/968609
Качество видео: DVDRip
Формат видео: AVI
Видео: DivX, 2155 Кбит/с, 704х384, 25,000 кадров/сек
Аудио: АС3, 2 ch, 192 Кбит/с, 48,0 КГц

MediaInfo

Общее
Полное имя : D:Ложь прошлого.avi
Формат : AVI
Формат/Информация : Audio Video Interleave
Размер файла : 1,41 Гбайт
Продолжительность : 1 ч. 25 м.
Общий поток : 2357 Кбит/сек
Программа кодирования : VirtualDubMod 1.5.10.2 (build 2540/release)
Библиотека кодирования : VirtualDubMod build 2540/release
Видео
Идентификатор : 0
Формат : MPEG-4 Visual
Параметр BVOP формата : 1
Параметр QPel формата : Нет
Параметр GMC формата : Без точки перехода
Параметр матрицы формата : Default (H.263)
Режим смешивания : Сжатый битовый поток
Идентификатор кодека : DX50
Идентификатор кодека/Подсказка : DivX 5
Продолжительность : 1 ч. 25 м.
Битрейт : 2155 Кбит/сек
Ширина : 704 пикселя
Высота : 384 пикселя
Соотношение сторон : 1,85:1
Частота кадров : 25,000 кадров/сек
Цветовое пространство : YUV
Субдискретизация насыщенности : 4:2:0
Битовая глубина : 8 бит
Тип развёртки : Прогрессивная
Метод сжатия : С потерями
Бит/(Пиксели*Кадры) : 0.319
Размер потока : 1,29 Гбайт (91%)
Библиотека кодирования : DivX 6.8.5 (UTC 2009-08-20)
Аудио
Идентификатор : 1
Формат : AC-3
Формат/Информация : Audio Coding 3
Расширение режима : CM (complete main)
Параметр Endianness формата : Big
Идентификатор кодека : 2000
Продолжительность : 1 ч. 25 м.
Вид битрейта : Постоянный
Битрейт : 192 Кбит/сек
Каналы : 2 канала
Расположение каналов : Front: L R
Частота : 48,0 КГц
Битовая глубина : 16 бит
Метод сжатия : С потерями
Размер потока : 117 Мбайт (8%)
Выравнивание : Разделение по промежуткам
Продолжительность промежутка : 40 мс. (1,00 видеокадр)
Время предзагрузки промежутка : 500 мс.

Скриншот c названием фильма

Скриншоты

[Профиль] [ЛС]

Создавать темы 06-Авг-2015 23:14 (спустя 11 месяцев 23 дня)

Топик был перенесен из форума Фильмы до 2014 года в форум Фильмы до 2012 года
sergej644
 

Создавать темы 12-Июн-2016 08:51 (спустя 1 год 9 месяцев)

Топик был перенесен из форума Фильмы 2011 года в форум Фильмы 2006-2008 года
Russian Mafia
 
Кто просматривает тему:

Показать сообщения:    

Текущее время: Сегодня 22:23

Часовой пояс: GMT



Вы не можете начинать темы
Вы не можете отвечать на сообщения
Вы не можете редактировать свои сообщения
Вы не можете удалять свои сообщения
Вы не можете голосовать в опросах
Вы не можете прикреплять файлы к сообщениям
Вы не можете скачивать файлы