Ложный огонь Foxfire (1996) DVDRip-AVC | P, A

 
Автор Сообщение

РАЛЬФ ®

Стаж: 1 год 5 месяцев

Сообщений: 8



Награды: Нет

Торрент-статистика

Создавать темы 06-Янв-2016 06:38

[Цитировать]

Информация о фильме
Название: Ложный огонь
Оригинальное название: Foxfire
Год выхода: 1996
Жанр: драма
Режиссер: Аннетт Хэйвуд-Картер
В ролях:
Хеди Баррес — Мэдди Вирц, Анджелина Джоли — Маргарет «Легс» Садовски, Дженни Льюис — Рита Фолдес, Дженни Шимицу — «Голди», Сара Розенберг — Виолетта Кан, Питер Фачинелли — Этан Биксби, Дэш Майок — Дана Тейлор, Мишель Брукхерст — Синди, Элден Хенсон — Бобби, Кэти Мориарти — Марта Вирц, Ричард Беймер — мистер Паркс, Фран Беннетт — судья Холифилд, Джон Дил — мистер Баттингер, Крис Малки — Дэн Голдман, отец «Голди», Джей Аковоне — Чак.
О фильме:
Учитель биологии любит «лапать» симпатичных учениц колледжа. Все это терпят, пока четыре девочки жестоко его не избивают. Девочек в результате отстраняют от занятий. Инициативу проявила путешествующая по стране независимая, красивая и крутая девчонка по кличке Легс.
Вокруг нее и собирается группа страдающих от самцов девчонок, находящихся в том возрасте, когда подобные обстоятельства вполне могут сменить сексуальную ориентацию. Они дают отпор кретинам-одноклассникам, когда те пытались изнасиловать одну из них в отместку за то, что их любимого учителя могут уволить. Угнав у подонков их же машину, попались в полицию. Суд. Девочек признали виновными…

Страна: США
Студия: Chestnut Hill Productions, Red Mullet Productions, Rysher Entertainment
Продолжительность: 01:41:55
Перевод: Профессиональный многоголосый, Авторский одноголосый
Файл
Кодек: x264
Качество: DVDRip-AVC
Видео: 704x368 @ 840x368 (2,25:1), 23.976 fps, 1724 kbps
Звук:
Аудио #1: AC3, 256 Kbps, 48.0 KHz, 2 ch (Rus) Профессиональный многоголосый
Аудио #2: AC3, 192 Kbps, 48.0 KHz, 2 ch (Rus) Авторский одноголосый, П.Карцев
Аудио #3: AC3, 256 Kbps, 48.0 KHz, 2 ch (Eng) Оригинал
Субтитры: Русские, Английские

Скриншоты


MediaInfo

Формат : Matroska
Версия формата : Version 2
Размер файла : 1,73 Гбайт
Продолжительность : 1 ч. 41 м.
Общий поток : 2430 Кбит/сек
Дата кодирования : UTC 2015-10-04 10:05:41
Программа кодирования : mkvmerge v5.4.0 ('Piper') built on Mar 10 2012 13:34:39
Библиотека кодирования : libebml v1.2.3 + libmatroska v1.3.0
Видео
Идентификатор : 1
Формат : AVC
Формат/Информация : Advanced Video Codec
Профиль формата : High@L3.0
Параметр CABAC формата : Да
Параметр ReFrames формата : 6 кадров
Идентификатор кодека : V_MPEG4/ISO/AVC
Продолжительность : 1 ч. 41 м.
Битрейт : 1724 Кбит/сек
Ширина : 704 пикселя
Высота : 368 пикселей
Соотношение сторон : 2,25:1
Соотношение сторон в оригинале : 1,913
Режим частоты кадров : Постоянный
Частота кадров : 23,976 кадра/сек
Цветовое пространство : YUV
Субдискретизация насыщенности : 4:2:0
Битовая глубина : 8 бит
Тип развёртки : Прогрессивная
Бит/(Пиксели*Кадры) : 0.278
Размер потока : 1,19 Гбайт (69%)
Заголовок : Foxfire / Ложный огонь (1996)
Библиотека кодирования : x264 core 79
Настройки программы : cabac=1 / ref=6 / deblock=1:-2:-1 / analyse=0x3:0x113 / me=umh / subme=9 / psy=1 / psy_rd=1.0:0.0 / mixed_ref=1 / me_range=32 / chroma_me=1 / trellis=2 / 8x8dct=1 / cqm=0 / deadzone=21,11 / chroma_qp_offset=-2 / threads=3 / nr=0 / decimate=1 / mbaff=0 / constrained_intra=0 / bframes=6 / b_pyramid=0 / b_adapt=2 / b_bias=0 / direct=1 / wpredb=1 / wpredp=2 / keyint=240 / keyint_min=24 / scenecut=40 / rc_lookahead=50 / rc=2pass / mbtree=1 / bitrate=1724 / ratetol=1.0 / qcomp=0.60 / qpmin=10 / qpmax=51 / qpstep=4 / cplxblur=20.0 / qblur=0.5 / ip_ratio=1.40 / aq=1:1.00
Язык : Russian
Default : Да
Forced : Нет
Основные цвета : BT.601 NTSC
Характеристики трансфера : BT.709
Коэффициенты матрицы : BT.601
colour_range : Limited
Аудио #1
Идентификатор : 2
Формат : AC-3
Формат/Информация : Audio Coding 3
Профиль формата : Dolby Digital
Расширение режима : CM (complete main)
Параметр Endianness формата : Big
Идентификатор кодека : A_AC3
Продолжительность : 1 ч. 41 м.
Вид битрейта : Постоянный
Битрейт : 256 Кбит/сек
Каналы : 2 канала
Расположение каналов : Front: L R
Частота : 48,0 КГц
Битовая глубина : 16 бит
Метод сжатия : С потерями
Размер потока : 187 Мбайт (11%)
Заголовок : MVO (Russian)
Язык : Russian
Default : Да
Forced : Нет
Аудио #2
Идентификатор : 3
Формат : AC-3
Формат/Информация : Audio Coding 3
Расширение режима : CM (complete main)
Параметр Endianness формата : Big
Идентификатор кодека : A_AC3
Продолжительность : 1 ч. 41 м.
Вид битрейта : Постоянный
Битрейт : 192 Кбит/сек
Каналы : 2 канала
Расположение каналов : Front: L R
Частота : 48,0 КГц
Битовая глубина : 16 бит
Метод сжатия : С потерями
Размер потока : 140 Мбайт (8%)
Заголовок : AVO (П.Карцев)
Язык : Russian
Default : Нет
Forced : Нет
Аудио #3
Идентификатор : 4
Формат : AC-3
Формат/Информация : Audio Coding 3
Расширение режима : CM (complete main)
Параметр Endianness формата : Big
Идентификатор кодека : A_AC3
Продолжительность : 1 ч. 41 м.
Вид битрейта : Постоянный
Битрейт : 256 Кбит/сек
Каналы : 2 канала
Расположение каналов : Front: L R
Частота : 48,0 КГц
Битовая глубина : 16 бит
Метод сжатия : С потерями
Размер потока : 187 Мбайт (11%)
Заголовок : Original (English)
Язык : English
Default : Нет
Forced : Нет
Текст #1
Идентификатор : 5
Формат : UTF-8
Идентификатор кодека : S_TEXT/UTF8
Идентификатор кодека/Информация : UTF-8 Plain Text
Заголовок : Rus
Язык : Russian
Default : Нет
Forced : Нет
Текст #2
Идентификатор : 6
Формат : UTF-8
Идентификатор кодека : S_TEXT/UTF8
Идентификатор кодека/Информация : UTF-8 Plain Text
Заголовок : Eng
Язык : English
Default : Нет
Forced : Нет
Меню
00:00:00.000 : :Chapter 1
00:04:36.317 : :Chapter 2
00:07:59.103 : :Chapter 3
00:10:26.125 : :Chapter 4
00:15:13.954 : :Chapter 5
00:19:45.809 : :Chapter 6
00:27:40.325 : :Chapter 7
00:30:57.647 : :Chapter 8
00:36:03.995 : :Chapter 9
00:44:42.429 : :Chapter 10
00:46:40.130 : :Chapter 11
00:48:40.584 : :Chapter 12
00:50:24.604 : :Chapter 13
00:52:11.586 : :Chapter 14
00:55:37.125 : :Chapter 15
00:57:29.237 : :Chapter 16
00:59:53.006 : :Chapter 17
01:05:40.061 : :Chapter 18
01:08:08.375 : :Chapter 19
01:10:11.707 : :Chapter 20
01:11:57.271 : :Chapter 21
01:15:08.962 : :Chapter 22
01:17:25.474 : :Chapter 23
01:19:25.886 : :Chapter 24
01:21:58.580 : :Chapter 25
01:24:51.377 : :Chapter 26
01:29:46.255 : :Chapter 27
01:32:40.680 : :Chapter 28
Релиз от: jf-160
[Профиль] [ЛС]
Показать сообщения:    

Текущее время: Сегодня 05:00

Часовой пояс: GMT



Вы не можете начинать темы
Вы не можете отвечать на сообщения
Вы не можете редактировать свои сообщения
Вы не можете удалять свои сообщения
Вы не можете голосовать в опросах
Вы не можете прикреплять файлы к сообщениям
Вы не можете скачивать файлы