Ложное движение / Falsche Bewegung (1975) BDRip | Р

 
Автор Сообщение

Russian Mafia ®

Пол:

Стаж: 1 год 8 месяцев

Сообщений: 4246



Награды: 10 (Подробнее)

За внесенный вклад в развитие сайта (Количество: 1) Mega Seeder 2 (Количество: 1) Mega Seeder 4 (Количество: 1)
Торрент-статистика

Создавать темы 11-Авг-2016 08:56

[Цитировать]

Ложное движение / Falsche Bewegung
Страна: Германия (ФРГ)
Производство: Albatros Produktion, Solaris Film, WDR, Wim Wenders Stiftung
Год выпуска: 1975
Жанр: драма
Продолжительность: 01:44:46
Режиссер: Вим Вендерс
Авторы сценария: Петер Хандке, Иоганн Вольфганг фон Гёте
В ролях: Рюдигер Фоглер, Ганс Кристиан Блех, Ханна Шигулла, Настасья Кински, Петер Керн, Иван Десни, Марианне Хоппе, Лиза Кройцер
Описание: Начинающий писатель отправляется в путь, продолжая тем самым традицию великих романтиков и модных битников. Но после войны страна изменилась: она не похожа ни на прежнюю Германию, ни на современную Америку. Молодые ведут беседы о поэзии, пока старики тихо лезут в петлю. А странствующие акробаты уже не служат символом неприкаянности искусства. Теперь это парочка из нимфетки и недобитого наци. Все хотят вернуться к нормальной жизни, но в итоге сеют одиночество...

Перевод: Профессиональный (многоголосый, закадровый) | Кармен Видео
Субтитры: отдельными файлами | русские, английские-Качество: BDRip
Формат: AVI
Видео кодек: XviD
Аудио кодек: АС3
Видео: 672x400 (5:3), 23.976 fps, XviD build 73 ~2 379 kbps avg
Аудио №1: 48.0 kHz, AC3 Dolby Digital, 2/0 (L,R) ch, ~192 kbps | RUS / Кармен Видео
Аудио №2: 48.0 kHz, AC3 Dolby Digital, 3/2 (L,C,R,l,r) + LFE ch, ~384 kbps | GER
Формат субтитров: *SRT
Дата премьеры (мир): 14 марта 1975

Media Info

General
Format : AVI
Format/Info : Audio Video Interleave
Format profile : OpenDML
File size : 2.18 GiB
Duration : 1h 44mn
Overall bit rate : 2 973 Kbps
Writing application : VirtualDubMod 1.5.10.2 (build 2542/release)
Writing library : VirtualDubMod build 2542/release
Video
ID : 0
Format : MPEG-4 Visual
Format profile : Advanced Simple@L5
Format settings, BVOP : 1
Format settings, QPel : No
Format settings, GMC : No warppoints
Format settings, Matrix : Default (MPEG)
Codec ID : XVID
Codec ID/Hint : XviD
Duration : 1h 44mn
Bit rate : 2 379 Kbps
Width : 672 pixels
Height : 400 pixels
Display aspect ratio : 5:3
Frame rate : 23.976 (23976/1000) fps
Color space : YUV
Chroma subsampling : 4:2:0
Bit depth : 8 bits
Scan type : Progressive
Compression mode : Lossy
Bits/(Pixel*Frame) : 0.369
Stream size : 1.74 GiB (80%)
Writing library : XviD 73
Audio #1
ID : 1
Format : AC-3
Format/Info : Audio Coding 3
Mode extension : CM (complete main)
Format settings, Endianness : Big
Codec ID : 2000
Duration : 1h 44mn
Bit rate mode : Constant
Bit rate : 192 Kbps
Channel(s) : 2 channels
Channel positions : Front: L R
Sampling rate : 48.0 KHz
Frame rate : 31.250 fps (1536 spf)
Compression mode : Lossy
Stream size : 144 MiB (6%)
Alignment : Split accross interleaves
Interleave, duration : 42 ms (1.00 video frame)
Interleave, preload duratio : 500 ms
Audio #2
ID : 2
Format : AC-3
Format/Info : Audio Coding 3
Mode extension : CM (complete main)
Format settings, Endianness : Big
Codec ID : 2000
Duration : 1h 44mn
Bit rate mode : Constant
Bit rate : 384 Kbps
Channel(s) : 6 channels
Channel positions : Front: L C R, Side: L R, LFE
Sampling rate : 48.0 KHz
Frame rate : 31.250 fps (1536 spf)
Compression mode : Lossy
Stream size : 288 MiB (13%)
Alignment : Split accross interleaves
Interleave, duration : 42 ms (1.00 video frame)
Interleave, preload duratio : 500 ms

Скриншоты

[Профиль] [ЛС]
Показать сообщения:    

Текущее время: Сегодня 02:44

Часовой пояс: GMT



Вы не можете начинать темы
Вы не можете отвечать на сообщения
Вы не можете редактировать свои сообщения
Вы не можете удалять свои сообщения
Вы не можете голосовать в опросах
Вы не можете прикреплять файлы к сообщениям
Вы не можете скачивать файлы