Ложное движение / Falsche Bewegung (1975) BDRemux 1080p | Р

 
Автор Сообщение

Russian Mafia ®

Пол:

Стаж: 2 года 1 месяц

Сообщений: 4259



Награды: 10 (Подробнее)

Top Releaser 3 (Количество: 1) Mega Seeder 3 (Количество: 1) Mega Seeder 5 (Количество: 1)
Торрент-статистика

Создавать темы 10-Авг-2016 15:10

[Цитировать]

Ложное движение / Falsche Bewegung
Страна: Германия (ФРГ)
Производство: Albatros Produktion, Solaris Film, WDR, Wim Wenders Stiftung
Год выпуска: 1975
Жанр: драма
Продолжительность: 01:44:46
Режиссер: Вим Вендерс
Авторы сценария: Петер Хандке, Иоганн Вольфганг фон Гёте
В ролях: Рюдигер Фоглер, Ганс Кристиан Блех, Ханна Шигулла, Настасья Кински, Петер Керн, Иван Десни, Марианне Хоппе, Лиза Кройцер
Описание: Начинающий писатель отправляется в путь, продолжая тем самым традицию великих романтиков и модных битников. Но после войны страна изменилась: она не похожа ни на прежнюю Германию, ни на современную Америку. Молодые ведут беседы о поэзии, пока старики тихо лезут в петлю. А странствующие акробаты уже не служат символом неприкаянности искусства. Теперь это парочка из нимфетки и недобитого наци. Все хотят вернуться к нормальной жизни, но в итоге сеют одиночество...

Перевод: Профессиональный (многоголосый, закадровый) | Кармен Видео
Субтитры: русские, английские-Качество: BDRemux 1080p
Формат: МКV
Видео кодек: AVC
Аудио кодек: АС3 | DTS
Видео: 1920x1080 (16:9), 23.976 fps, MPEG-4 AVC ~34.8 Mbps avg
Аудио №1: 48.0 kHz, AC3 Dolby Digital, 2/0 (L,R) ch, ~192 kbps | RUS / Кармен Видео
Аудио №2: 48.0 kHz, Digital Theater Systems МА, 3/2 (L,C,R,l,r) + LFE ch, ~3194 kbps | GER
Аудио №3: 48.0 kHz, AC3 Dolby Digital, 2/0 (L,R) ch, ~192 kbps | GER / Commentary
Формат субтитров: UTF-8 Plain Text
Дата премьеры (мир): 14 марта 1975

BDRemux Info

General
Unique ID : 196625290658160973007464113475911872210 (0x93ECA74C7272B429A4B394CF7D0EEED2)
Format : Matroska
Format version : Version 2
File size : 28.1 GiB
Duration : 1h 44mn
Overall bit rate mode : Variable
Overall bit rate : 38.4 Mbps
Writing application : mkvmerge v5.0.1 ('Es ist Sommer') built on Nov 6 2011 16:23:40
Writing library : libebml v1.2.2 + libmatroska v1.3.0
Video
ID : 1
Format : AVC
Format/Info : Advanced Video Codec
Format profile : High@L4.1
Format settings, CABAC : Yes
Format settings, ReFrames : 4 frames
Codec ID : V_MPEG4/ISO/AVC
Duration : 1h 44mn
Bit rate mode : Variable
Maximum bit rate : 37.0 Mbps
Width : 1 920 pixels
Height : 1 080 pixels
Display aspect ratio : 16:9
Frame rate mode : Constant
Frame rate : 23.976 fps
Color space : YUV
Chroma subsampling : 4:2:0
Bit depth : 8 bits
Scan type : Progressive
Title : Falsche Bewegung.1975.Criterion.BDRemux
Language : German
Default : Yes
Forced : No
Audio #1
ID : 2
Format : AC-3
Format/Info : Audio Coding 3
Mode extension : CM (complete main)
Format settings, Endianness : Big
Codec ID : A_AC3
Duration : 1h 44mn
Bit rate mode : Constant
Bit rate : 192 Kbps
Channel(s) : 2 channels
Channel positions : Front: L R
Sampling rate : 48.0 KHz
Bit depth : 16 bits
Compression mode : Lossy
Stream size : 144 MiB (1%)
Language : Russian
Default : Yes
Forced : No
Audio #2
ID : 3
Format : DTS
Format/Info : Digital Theater Systems
Format profile : MA / Core
Mode : 16
Format settings, Endianness : Big
Codec ID : A_DTS
Duration : 1h 44mn
Bit rate mode : Variable
Bit rate : Unknown / 1 509 Kbps
Channel(s) : 6 channels
Channel positions : Front: L C R, Side: L R, LFE
Sampling rate : 48.0 KHz
Bit depth : 24 bits
Compression mode : Lossless / Lossy
Language : German
Default : No
Forced : No
Audio #3
ID : 4
Format : AC-3
Format/Info : Audio Coding 3
Mode extension : CM (complete main)
Format settings, Endianness : Big
Codec ID : A_AC3
Duration : 1h 44mn
Bit rate mode : Constant
Bit rate : 192 Kbps
Channel(s) : 2 channels
Channel positions : Front: L R
Sampling rate : 48.0 KHz
Bit depth : 16 bits
Compression mode : Lossy
Stream size : 144 MiB (1%)
Title : комментарии режиссера фильма
Language : German
Default : No
Forced : No
Text #1
ID : 5
Format : UTF-8
Codec ID : S_TEXT/UTF8
Codec ID/Info : UTF-8 Plain Text
Language : Russian
Default : No
Forced : No
Text #2
ID : 6
Format : UTF-8
Codec ID : S_TEXT/UTF8
Codec ID/Info : UTF-8 Plain Text
Language : English
Default : No
Forced : No
Menu
00:00:00.000 : en:Frustration
00:07:36.581 : en:By train
00:14:42.882 : en:Quiet longing
00:22:56.625 : en:A writer, an artist, and a singer
00:27:37.322 : en:Wandering
00:39:34.288 : en:Unexpected guests
00:48:57.643 : en:Fear
00:56:56.037 : en:Dreams
01:02:59.192 : en:The walk
01:11:35.666 : en:Bloodlust
01:19:08.201 : en:Drifting apart
01:25:00.386 : en:Slipups
01:35:15.543 : en:Overboard
01:42:53.041 : en:Credits

Скриншоты

[Профиль] [ЛС]
Показать сообщения:    

Текущее время: Сегодня 08:50

Часовой пояс: GMT



Вы не можете начинать темы
Вы не можете отвечать на сообщения
Вы не можете редактировать свои сообщения
Вы не можете удалять свои сообщения
Вы не можете голосовать в опросах
Вы не можете прикреплять файлы к сообщениям
Вы не можете скачивать файлы