Ложковилка / Spork (Дж.Б. Гьюмен мл. / J.B. Ghuman Jr.) [2010, США, комедия, DVDRip] VO (Кошкин) + Original Eng

 
Автор Сообщение

TorrentFilm ®

Пол:

Стаж: 2 года

Сообщений: 7741



Награды: Нет

Торрент-статистика

Создавать темы 24-Фев-2016 00:08

[Цитировать]

Ложковилка / Spork- Страна: США
Жанр: комедия
Год выпуска: 2010
Продолжительность: 01:26:27-Перевод: Одноголосый закадровый Василий Кошкин
Cубтитры: нет
Оригинальная аудиодорожка: английский (отдельно)-Режиссер: Дж.Б. Гьюмен мл. / J.B. Ghuman Jr.
В ролях: Саванна Стелин, Родни Истман, Роберт Брадвика, Кевин Чунг, Чед Аллен, Элэйн Хендрикс, Ярдли Смит, Кит Дэвид-Описание: Всем известно, что старшие классы школы могут быть неприятным временем. Для Спорк все как раз именно так, даже намного хуже. Спорк — то ли мальчик, то ли девочка — всегда чувствовала себя аутсайдером среди сверстников и старалась держаться подальше от агрессивных одноклассниц, сходящих с ума от Бритни Спирс и не упускающих возможности лишний раз поиздеваться над ней. Но близится конкурс школьных талантов, и у Спорк появляется шанс показать всем этим девчатам-фанаткам, кто здесь настоящая звезда.-Сэмпл-Качество видео: DVDRip
Формат видео: AVI
Видео: 640x272 (2.35:1), 23.976 fps, XviD MPEG-4 ~984 kbps avg, 0.24 bit/pixel
Аудио: 48 kHz, AC3 Dolby Digital, 2/0 (L,R) ch, ~192 kbps
Аудио 2: 48 kHz, AC3 Dolby Digital, 2/0 (L,R) ch, ~192 kbps (отдельно)

MediaInfo

General
Complete name : E:\Downloads\Spork.Vilkalozka\Spork.avi
Format : AVI
Format/Info : Audio Video Interleave
File size : 733 MiB
Duration : 1h 26mn
Overall bit rate : 1 186 Kbps
Writing application : VirtualDubMod 1.5.10.2 (build 2540/release)
Writing library : VirtualDubMod build 2540/release
Video
ID : 0
Format : MPEG-4 Visual
Format profile : Advanced Simple@L5
Format settings, BVOP : 2
Format settings, QPel : No
Format settings, GMC : No warppoints
Format settings, Matrix : Default (H.263)
Muxing mode : Packed bitstream
Codec ID : XVID
Codec ID/Hint : XviD
Duration : 1h 26mn
Bit rate : 984 Kbps
Width : 640 pixels
Height : 272 pixels
Display aspect ratio : 2.35:1
Frame rate : 23.976 fps
Color space : YUV
Chroma subsampling : 4:2:0
Bit depth : 8 bits
Scan type : Progressive
Compression mode : Lossy
Bits/(Pixel*Frame) : 0.236
Stream size : 608 MiB (83%)
Writing library : XviD 72
Audio
ID : 1
Format : AC-3
Format/Info : Audio Coding 3
Mode extension : CM (complete main)
Format settings, Endianness : Big
Codec ID : 2000
Duration : 1h 26mn
Bit rate mode : Constant
Bit rate : 192 Kbps
Channel(s) : 2 channels
Channel positions : Front: L R
Sampling rate : 48.0 KHz
Bit depth : 16 bits
Compression mode : Lossy
Stream size : 119 MiB (16%)
Alignment : Split accross interleaves
Interleave, duration : 42 ms (1.00 video frame)
Interleave, preload duration : 500 ms
Audio #2
ID : 2
Format : AC-3
Format/Info : Audio Coding 3
Mode extension : CM (complete main)
Format settings, Endianness : Big
Codec ID : 2000
Duration : 1h 26mn
Bit rate mode : Constant
Bit rate : 192 Kbps
Channel(s) : 2 channels
Channel positions : Front: L R
Sampling rate : 48.0 KHz
Bit depth : 16 bits
Compression mode : Lossy
Stream size : 119 MiB (14%)
Alignment : Split accross interleaves
Interleave, duration : 42 ms (1.00 video frame)
Interleave, preload duration : 500 ms

Скриншот c названием фильма

Скриншоты

[Профиль] [ЛС]

Создавать темы 12-Июн-2016 07:53 (спустя 3 месяца 17 дней)

Топик был перенесен из форума Фильмы 2011 года в форум Фильмы 2010 года
Russian Mafia
 
Кто просматривает тему:

Показать сообщения:    

Текущее время: Сегодня 17:42

Часовой пояс: GMT



Вы не можете начинать темы
Вы не можете отвечать на сообщения
Вы не можете редактировать свои сообщения
Вы не можете удалять свои сообщения
Вы не можете голосовать в опросах
Вы не можете прикреплять файлы к сообщениям
Вы не можете скачивать файлы