Логово / Прибежище / Haunt (Мак Картер / Mac Carter) [2014, США, ужасы, WEB-DLRip] Sub Rus + Original Eng

 
Автор Сообщение

Создавать темы 13-Июл-2014 16:39

Логово / Прибежище / Haunt
От продюсера "Района №9"
Страна: США
Жанр: ужасы
Год выпуска: 2014
Продолжительность: 01:25:47
Перевод: Субтитры Antonio
Cубтитры: русские
Оригинальная аудиодорожка: английский
Режиссер: Мак Картер / Mac Carter
В ролях: Лиана Либерато, Айон Скай, Гаррисон Гилбертсон, Джеки Вивер, Карл Хандра
Описание: Замкнутый подросток воодушевляется знакомством со своей новой соседкой, и уже вместе парочка начинает исследовать дом с привидениями, который его семья накануне купила по неведению.
Сэмпл: http://multi-up.com/
Качество видео: WEB-DLRip
Формат видео: AVI
Видео: Xvid 720x304 23.98fps 1067Kbps
Аудио: Dolby AC3 48000Hz stereo 160Kbps
Формат субтитров: softsub (SRT)

Фрагмент субтитров

1
00:00:35,295 --> 00:00:38,671
Русские субтитры: Antonio
2
00:02:59,024 --> 00:03:02,293
Здесь... здесь есть кто-нибудь?
3
00:03:13,617 --> 00:03:16,090
Кэйти? Хилари?
4
00:03:17,102 --> 00:03:18,793
Мэтью?
5
00:03:20,742 --> 00:03:22,457
Дети, если вы меня слышите...
6
00:03:24,774 --> 00:03:26,746
Знайте, что мне жаль.
7
00:03:28,749 --> 00:03:30,305
Мне так жаль.
8
00:03:36,005 --> 00:03:37,522
Папа?
9
00:03:40,429 --> 00:03:42,138
- Папа?
- Папа?
10
00:03:43,270 --> 00:03:44,919
Я здесь!
11
00:03:44,920 --> 00:03:46,352
Папа!
12
00:03:47,973 --> 00:03:49,376
Я вас слышу!
13
00:03:49,377 --> 00:03:51,120
Папа, мне страшно!
14
00:03:52,349 --> 00:03:55,318
Мэтью, это ты?
15
00:03:55,319 --> 00:03:57,512
Папа! Она идёт.
16
00:03:57,513 --> 00:03:59,560
- Папа! Она здесь.
- Я не понимаю...
17
00:04:02,425 --> 00:04:05,577
Я вас не понимаю.
18
00:04:07,222 --> 00:04:08,649
Папа?
19
00:04:11,661 --> 00:04:14,898
- Она здесь.
- Она здесь.
20
00:05:52,029 --> 00:05:56,501
ЛОГОВО: место, где обитает зверь.
(Толковый словарь С.И. Ожегова)

MediaInfo

General
Complete name : D:\TORRENTS\ЛОГОВО\Логово.avi
Format : AVI
Format/Info : Audio Video Interleave
File size : 759 MiB
Duration : 1h 25mn
Overall bit rate : 1 237 Kbps
Video
ID : 0
Format : MPEG-4 Visual
Format profile : Advanced Simple@L5
Format settings, BVOP : 2
Format settings, QPel : No
Format settings, GMC : No warppoints
Format settings, Matrix : Default (H.263)
Codec ID : XVID
Codec ID/Hint : XviD
Duration : 1h 25mn
Bit rate : 1 067 Kbps
Width : 720 pixels
Height : 304 pixels
Display aspect ratio : 2.35:1
Frame rate : 23.976 fps
Color space : YUV
Chroma subsampling : 4:2:0
Bit depth : 8 bits
Scan type : Progressive
Compression mode : Lossy
Bits/(Pixel*Frame) : 0.203
Stream size : 655 MiB (86%)
Writing library : XviD 64
Audio
ID : 1
Format : AC-3
Format/Info : Audio Coding 3
Mode extension : CM (complete main)
Format settings, Endianness : Big
Codec ID : 2000
Duration : 1h 25mn
Bit rate mode : Constant
Bit rate : 160 Kbps
Channel(s) : 2 channels
Channel positions : Front: L R
Sampling rate : 48.0 KHz
Bit depth : 16 bits
Compression mode : Lossy
Stream size : 98.2 MiB (13%)
Alignment : Aligned on interleaves
Interleave, duration : 42 ms (1.00 video frame)

Скриншот c названием фильма

 
Показать сообщения:    

Текущее время: Сегодня 15:42

Часовой пояс: GMT



Вы не можете начинать темы
Вы не можете отвечать на сообщения
Вы не можете редактировать свои сообщения
Вы не можете удалять свои сообщения
Вы не можете голосовать в опросах
Вы не можете прикреплять файлы к сообщениям
Вы не можете скачивать файлы