Логан / Logan (2017) UHD BDRemux 2160p | 4K | HDR | D, A | Лицензия

 
Автор Сообщение

BOSS ®

Пол:

Стаж: 3 года

Сообщений: 7633

Откуда: ODESSA



Награды: 22 (Подробнее)

Mega Releaser 4 (Количество: 1) Mega Releaser 2 (Количество: 1) Mega Seeder 2 (Количество: 1)
Торрент-статистика

Создавать темы 13-Окт-2017 05:08

[Цитировать]

Информация о фильме
Название: Логан
Оригинальное название: Logan
Год выхода: 2017
Жанр: Фантастика, боевик, триллер, драма
Режиссер: Джеймс Мэнголд
В ролях: Хью Джекман, Патрик Стюарт, Дафни Кин, Бойд Холбрук, Стивен Мерчант, Элизабет Родригес, Ричард Э. Грант, Эрик Ла Салль, Элиз Нил, Куинси Фаус
О фильме:
В недалеком будущем уставший от жизни Логан заботится о больном профессоре Икс, который прячется неподалеку от мексиканской границы. Но Логан больше не сможет скрывать свое прошлое, когда встретится с юным мутантом, которого преследуют темные силы.

Страна: США
Студия: 20th Century Fox Film Corporation, Marvel Entertainment
Продолжительность: 02:17:23
Перевод(ы):
#1: Дублированный | Лицензия
#2: Авторский | Дмитрий Есарев
#3: Авторский | Михаил Чадов
Файл
Качество: BDRemux 2160p
Видео: MPEG-H HEVC HDR Video, 3840x2160, 35.0 Mbit/s, 23.976 fps
Звук:
Аудио #01: 48 kHz, DTS, 5.1, 768 Kbps | Лицензия | RUS |
Аудио #02: 48 kHz, DTS-HD MA, 7.1, 4910 Kbps | Авторский | RUS |
Аудио #03: 48 kHz, DTS-HD MA, 7.1, 4909 Kbps | Авторский | RUS |
Аудио #04: 48 kHz, TrueHD, 7.1, 4998 Kbps | Оригинал | ENG |
Аудио #05: 48 kHz, AC3, 5.1, 640 Kbps | Оригинал | ENG |
Субтитры: Русские (forced, full), украинские, английские

MI

General
Unique ID : 222505858606862299336222591713365844424 (0xA76511D099F5B8C7936011E86B3DE1C8)
Complete name : F:VideoSSDLogan.2017.BDREMUX.2160.4K.UltraHD.HEVC.HDR.ExKinoRay.mkv
Format : Matroska
Format version : Version 4 / Version 2
File size : 49.2 GiB
Duration : 2 h 17 min
Overall bit rate mode : Variable
Overall bit rate : 51.3 Mb/s
Encoded date : UTC 2017-10-13 01:45:20
Writing application : mkvmerge v16.0.0 ('Protest') 64-bit
Writing library : libebml v1.3.5 + libmatroska v1.4.8
Video
ID : 1
Format : HEVC
Format/Info : High Efficiency Video Coding
Format profile : Main 10@L5.1@High
Codec ID : V_MPEGH/ISO/HEVC
Duration : 2 h 17 min
Bit rate : 35.0 Mb/s
Width : 3 840 pixels
Height : 2 160 pixels
Display aspect ratio : 16:9
Frame rate mode : Constant
Frame rate : 23.976 (24000/1001) FPS
Color space : YUV
Chroma subsampling : 4:2:0 (Type 2)
Bit depth : 10 bits
Bits/(Pixel*Frame) : 0.176
Stream size : 33.6 GiB (68%)
Writing library : ATEME Titan File 3.7.8 (4.7.8.0)
Language : English
Default : Yes
Forced : No
Color range : Limited
Color primaries : BT.2020
Transfer characteristics : PQ
Matrix coefficients : BT.2020 non-constant
Mastering display color pri : R: x=0.680000 y=0.320000, G: x=0.265000 y=0.690000, B: x=0.150000 y=0.060000, White point: x=0.312700 y=0.329000
Mastering display luminance : min: 0.0050 cd/m2, max: 1000.0000 cd/m2
Audio #1
ID : 2
Format : DTS
Format/Info : Digital Theater Systems
Mode : 16
Format settings, Endianness : Big
Codec ID : A_DTS
Duration : 2 h 17 min
Bit rate mode : Constant
Bit rate : 768 kb/s
Channel(s) : 6 channels
Channel positions : Front: L C R, Side: L R, LFE
Sampling rate : 48.0 kHz
Frame rate : 93.750 FPS (512 SPF)
Bit depth : 24 bits
Compression mode : Lossy
Stream size : 755 MiB (1%)
Title : Dub [License]
Language : Russian
Default : Yes
Forced : No
Audio #2
ID : 3
Format : DTS
Format/Info : Digital Theater Systems
Format profile : MA / Core
Mode : 16
Format settings, Endianness : Big
Codec ID : A_DTS
Duration : 2 h 17 min
Bit rate mode : Variable / Constant
Bit rate : 4 910 kb/s / 1 509 kb/s
Channel(s) : 8 channels / 6 channels
Channel positions : Front: L C R, Side: L R, Back: L R, LFE / Front: L C R, Side: L R, LFE
Sampling rate : 48.0 kHz
Frame rate : 93.750 FPS (512 SPF)
Bit depth : 24 bits
Compression mode : Lossless / Lossy
Stream size : 4.71 GiB (10%)
Title : AVO [Yesarev]
Language : Russian
Default : No
Forced : No
Audio #3
ID : 4
Format : DTS
Format/Info : Digital Theater Systems
Format profile : MA / Core
Mode : 16
Format settings, Endianness : Big
Codec ID : A_DTS
Duration : 2 h 17 min
Bit rate mode : Variable / Constant
Bit rate : 4 909 kb/s / 1 509 kb/s
Channel(s) : 8 channels / 6 channels
Channel positions : Front: L C R, Side: L R, Back: L R, LFE / Front: L C R, Side: L R, LFE
Sampling rate : 48.0 kHz
Frame rate : 93.750 FPS (512 SPF)
Bit depth : 24 bits
Compression mode : Lossless / Lossy
Stream size : 4.71 GiB (10%)
Title : AVO [Chadov]
Language : Russian
Default : No
Forced : No
Audio #4
ID : 5
Format : TrueHD
Format profile : TrueHD+Atmos / TrueHD
Codec ID : A_TRUEHD
Duration : 2 h 17 min
Bit rate mode : Variable
Bit rate : 4 998 kb/s
Maximum bit rate : 9 255 kb/s
Channel(s) : Object Based / 8 channels
Channel positions : Object Based / Front: L C R, Side: L R, Back: L R, LFE
Sampling rate : / 48.0 kHz
Frame rate : 1 200.000 FPS (40 SPF)
Compression mode : Lossless
Stream size : 4.80 GiB (10%)
Title : Original
Language : English
Default : No
Forced : No
Audio #5
ID : 6
Format : AC-3
Format/Info : Audio Coding 3
Format settings, Endianness : Big
Codec ID : A_AC3
Duration : 2 h 17 min
Bit rate mode : Constant
Bit rate : 640 kb/s
Channel(s) : 6 channels
Channel positions : Front: L C R, Side: L R, LFE
Sampling rate : 48.0 kHz
Frame rate : 31.250 FPS (1536 SPF)
Bit depth : 16 bits
Compression mode : Lossy
Stream size : 629 MiB (1%)
Language : English
Service kind : Complete Main
Default : No
Forced : No
Text #1
ID : 7
Format : UTF-8
Codec ID : S_TEXT/UTF8
Codec ID/Info : UTF-8 Plain Text
Duration : 2 h 15 min
Bit rate : 0 b/s
Count of elements : 4
Stream size : 153 Bytes (0%)
Title : Forced
Language : Russian
Default : Yes
Forced : No
Text #2
ID : 8
Format : UTF-8
Codec ID : S_TEXT/UTF8
Codec ID/Info : UTF-8 Plain Text
Duration : 2 h 16 min
Bit rate : 60 b/s
Count of elements : 1378
Stream size : 60.2 KiB (0%)
Title : Full
Language : Russian
Default : No
Forced : No
Text #3
ID : 9
Format : UTF-8
Codec ID : S_TEXT/UTF8
Codec ID/Info : UTF-8 Plain Text
Duration : 2 h 16 min
Bit rate : 59 b/s
Count of elements : 1385
Stream size : 59.5 KiB (0%)
Title : Full
Language : Ukrainian
Default : No
Forced : No
Text #4
ID : 10
Format : UTF-8
Codec ID : S_TEXT/UTF8
Codec ID/Info : UTF-8 Plain Text
Duration : 2 h 13 min
Bit rate : 41 b/s
Count of elements : 1555
Stream size : 40.8 KiB (0%)
Title : Full
Language : English
Default : No
Forced : No
Text #5
ID : 11
Format : UTF-8
Codec ID : S_TEXT/UTF8
Codec ID/Info : UTF-8 Plain Text
Duration : 2 h 13 min
Bit rate : 49 b/s
Count of elements : 1951
Stream size : 48.7 KiB (0%)
Title : SDH
Language : English
Default : No
Forced : No
Menu
00:00:00.000 : en:00:00:00.000
00:05:35.126 : en:00:05:35.126
00:09:18.558 : en:00:09:18.558
00:11:41.159 : en:00:11:41.159
00:16:23.232 : en:00:16:23.232
00:20:11.669 : en:00:20:11.669
00:24:26.715 : en:00:24:26.715
00:26:11.904 : en:00:26:11.904
00:30:13.311 : en:00:30:13.311
00:31:59.126 : en:00:31:59.126
00:34:56.886 : en:00:34:56.886
00:39:53.433 : en:00:39:53.433
00:42:55.573 : en:00:42:55.573
00:45:03.826 : en:00:45:03.826
00:47:53.412 : en:00:47:53.412
00:49:39.560 : en:00:49:39.560
00:52:14.423 : en:00:52:14.423
00:54:30.517 : en:00:54:30.517
00:57:44.211 : en:00:57:44.211
01:00:10.398 : en:01:00:10.398
01:03:53.830 : en:01:03:53.830
01:06:55.511 : en:01:06:55.511
01:09:54.774 : en:01:09:54.774
01:13:15.891 : en:01:13:15.891
01:18:43.594 : en:01:18:43.594
01:21:50.906 : en:01:21:50.906
01:25:52.189 : en:01:25:52.189
01:28:38.813 : en:01:28:38.813
01:32:41.431 : en:01:32:41.431
01:35:29.724 : en:01:35:29.724
01:41:03.432 : en:01:41:03.432
01:43:39.880 : en:01:43:39.880
01:49:38.989 : en:01:49:38.989
01:54:20.562 : en:01:54:20.562
01:57:00.430 : en:01:57:00.430
01:59:20.403 : en:01:59:20.403
02:01:14.434 : en:02:01:14.434
02:05:09.627 : en:02:05:09.627
02:06:40.551 : en:02:06:40.551
02:11:07.860 : en:02:11:07.860
[Профиль] [ЛС]
Показать сообщения:    

Текущее время: Сегодня 19:05

Часовой пояс: GMT



Вы не можете начинать темы
Вы не можете отвечать на сообщения
Вы не можете редактировать свои сообщения
Вы не можете удалять свои сообщения
Вы не можете голосовать в опросах
Вы не можете прикреплять файлы к сообщениям
Вы не можете скачивать файлы