Ловцы привидений / Los Totenwackers / The Totenwackers (Ибон Кормензана / Ibon Cormenzana) [2007, Испания, Великобритания, приключения, детский, семейный, мистика, DVDRip] VO + Sub Rus + Original Spa

 
Автор Сообщение

TorrentFilm ®

Пол:

Стаж: 2 года

Сообщений: 7741



Награды: Нет

Торрент-статистика

Создавать темы 10-Мар-2016 00:08

[Цитировать]

Ловцы привидений / Los Totenwackers / The Totenwackers
Страна: Испания, Великобритания
Жанр: приключения, детский, семейный, мистика
Год выпуска: 2007
Продолжительность: 01:25:52
Перевод: Одноголосый закадровый
Cубтитры: русские
Оригинальная аудиодорожка: испанский
Режиссер: Ибон Кормензана / Ibon Cormenzana
В ролях: Элиза Драббен, Джаспер Харрис, Азздин Бенаджи, Джеральдин Чаплин, Наталья Санчес, Сельсо Бугальо, Терель Павес
Описание: Маленькая Сара только что переехала со своей семьей в новый дом, в котором происходят странные вещи. Вскоре девочка обнаруживает, что в доме обитает привидение прежнего владельца дома. Саре помогает ее одноклассница и ее юный сосед, большой специалист по паранормальным явлениям.
Доп. информация: Фильм взят отсюда http://torrentfilm.net/forum/viewtopic.php?t=4465958
Сэмпл: http://multi-up.com/1092223
Качество видео: DVDRip
Формат видео: AVI
Видео: 688x368 (1.87:1), 25 fps, XviD build 24 ~997 kbps avg, 0.16 bit/pixel
Аудио 1: 48 kHz, MPEG Layer 3, 2 ch, ~128.00 kbps avg(Русский)
Аудио 2: 48 kHz, MPEG Layer 3, 2 ch, ~128.00 kbps avg(Испанский)
Формат субтитров: softsub (SRT)
Доп. информация о субтитрах: Русские внешние (KOMORR)

MediaInfo

Общее
Полное имя : F:\С моей озвучкой\Ловцы привидений\The Totenwackers.avi
Формат : AVI
Формат/Информация : Audio Video Interleave
Размер файла : 779 Мбайт
Продолжительность : 1 ч. 25 м.
Общий поток : 1268 Кбит/сек
Программа кодирования : VirtualDubModRus 1.5.10.2 (build 2542/release)
Библиотека кодирования : VirtualDubMod build 2542/release
Видео
Идентификатор : 0
Формат : MPEG-4 Visual
Профиль формата : Advanced Simple@L5
Параметр BVOP формата : 2
Параметр QPel формата : Нет
Параметр GMC формата : Без точки перехода
Параметр матрицы формата : Default (H.263)
Идентификатор кодека : XVID
Идентификатор кодека/Подсказка : XviD
Продолжительность : 1 ч. 25 м.
Битрейт : 998 Кбит/сек
Ширина : 688 пикселей
Высота : 368 пикселей
Соотношение сторон : 1,85:1
Частота кадров : 25,000 кадров/сек
Цветовое пространство : YUV
Субдискретизация насыщенности : 4:2:0
Битовая глубина : 8 бит
Тип развёртки : Прогрессивная
Метод сжатия : С потерями
Бит/(Пиксели*Кадры) : 0.158
Размер потока : 613 Мбайт (79%)
Библиотека кодирования : XviD 1.0.0 Beta2.5 (UTC 2003-12-18)
Аудио #1
Идентификатор : 1
Формат : MPEG Audio
Версия формата : Version 1
Профиль формата : Layer 3
Режим : Joint stereo
Расширение режима : MS Stereo
Идентификатор кодека : 55
Идентификатор кодека/Подсказка : MP3
Продолжительность : 1 ч. 25 м.
Вид битрейта : Постоянный
Битрейт : 128 Кбит/сек
Каналы : 2 канала
Частота : 48,0 КГц
Метод сжатия : С потерями
Размер потока : 78,6 Мбайт (10%)
Выравнивание : Соединение по промежуткам
Продолжительность промежутка : 40 мс. (1,00 видеокадр)
Время предзагрузки промежутка : 504 мс.
Библиотека кодирования : LAME3.96
Аудио #2
Идентификатор : 2
Формат : MPEG Audio
Версия формата : Version 1
Профиль формата : Layer 3
Режим : Joint stereo
Расширение режима : MS Stereo
Идентификатор кодека : 55
Идентификатор кодека/Подсказка : MP3
Продолжительность : 1 ч. 25 м.
Вид битрейта : Постоянный
Битрейт : 128 Кбит/сек
Каналы : 2 канала
Частота : 48,0 КГц
Метод сжатия : С потерями
Размер потока : 78,6 Мбайт (10%)
Выравнивание : Соединение по промежуткам
Продолжительность промежутка : 40 мс. (1,00 видеокадр)
Время предзагрузки промежутка : 504 мс.

Скриншоты

[Профиль] [ЛС]
Кто просматривает тему:

Показать сообщения:    

Текущее время: Сегодня 06:05

Часовой пояс: GMT



Вы не можете начинать темы
Вы не можете отвечать на сообщения
Вы не можете редактировать свои сообщения
Вы не можете удалять свои сообщения
Вы не можете голосовать в опросах
Вы не можете прикреплять файлы к сообщениям
Вы не можете скачивать файлы