Ловушка времени / Time Trap (2017) HDTVRip 720p | GreenРай Studio

 
Автор Сообщение

BOSS ®

Пол:

Стаж: 4 года

Сообщений: 12092

Откуда: ODESSA



Награды: 22 (Подробнее)

Top Releaser 2 (Количество: 1) Mega Seeder 5 (Количество: 1) Mega Seeder 1 (Количество: 1)
Торрент-статистика

Создавать темы 09-Авг-2018 17:34

[Цитировать]

Информация о фильме
Год выхода: 2017
Наименование: Ловушка времени
Оригинальное наименование: Time Trap
Страна: США
Жанр: фантастика, боевик, приключения
Режиссер постановщик: Марк Деннис, Бен Фостер
В главных ролях: Эндрю Уилсон, Кэссиди Гиффорд, Брианна Хоуи, Рейли МакКлендон, Оливия Драгусевич, Макс Райт, Ганс Марреро, Рич Скидмор, Крис Старджон, Гопал Бидари
О фильме: Группа студентов отправляются в пещеры Техаса, чтобы найти своего любимого преподавателя по археологии, пропавшего без вести некоторое время назад. Ребята уверены, что он нуждается в помощи, а раз спасатели не смогут оперативно выполнить эту работу, то у них не остается выбора. Студенты готовы рисковать собственными жизнями ради спасения своего преподавателя. Кроме того, их интересует его необычная теория, которая гласит, что в этих местах может находиться истинный источник молодости.

Файл
Качество: HDTVRip 720p
Видео данные: MKV, 1280x700 (1.85:1), 23.976 fps, 3495 Кбит/с
Аудио данные: AAC, 2 ch, 192 Кбит/с
Перевод: Любительский многоголосый (GreenРай Studio)
Продолжительность: 01:24:45

Медиаинфо

General
Unique ID : 158588276759315388423687892997631812190 (0x774EFDB8FD1B95ED83014A265B0EA25E)
Complete name : D:ГРИНРАЙTime.Trap.2017.P.HDTV.720p.mkv
Format : Matroska
Format version : Version 4 / Version 2
File size : 2.18 GiB
Duration : 1 h 24 min
Overall bit rate : 3 687 kb/s
Encoded date : UTC 2018-08-02 07:21:47
Writing application : mkvmerge v25.0.0 ('Prog Noir') 64-bit
Writing library : libebml v1.3.6 + libmatroska v1.4.9
Video
ID : 1
Format : AVC
Format/Info : Advanced Video Codec
Format profile : High@L3.1
Format settings : CABAC / 1 Ref Frames
Format settings, CABAC : Yes
Format settings, RefFrames : 1 frame
Format settings, GOP : M=1, N=30
Codec ID : V_MPEG4/ISO/AVC
Duration : 1 h 24 min
Bit rate : 3 495 kb/s
Width : 1 280 pixels
Height : 700 pixels
Display aspect ratio : 1.85:1
Frame rate mode : Constant
Frame rate : 23.976 (24000/1001) FPS
Color space : YUV
Chroma subsampling : 4:2:0
Bit depth : 8 bits
Scan type : Progressive
Bits/(Pixel*Frame) : 0.163
Stream size : 2.07 GiB (95%)
Language : English
Default : Yes
Forced : No
Audio
ID : 2
Format : AAC
Format/Info : Advanced Audio Codec
Format profile : LC
Codec ID : A_AAC-2
Duration : 1 h 24 min
Bit rate : 192 kb/s
Channel(s) : 2 channels
Channel positions : Front: L R
Sampling rate : 48.0 kHz
Frame rate : 46.875 FPS (1024 SPF)
Compression mode : Lossy
Stream size : 115 MiB (5%)
Language : English
Default : Yes
Forced : No
Внимание, имеется видео и аудио реклама от спонсора показа

Скриншоты

Релиз от:
[Профиль] [ЛС]
Показать сообщения:    

Текущее время: Сегодня 15:49

Часовой пояс: GMT



Вы не можете начинать темы
Вы не можете отвечать на сообщения
Вы не можете редактировать свои сообщения
Вы не можете удалять свои сообщения
Вы не можете голосовать в опросах
Вы не можете прикреплять файлы к сообщениям
Вы не можете скачивать файлы