Ловец снов / Dreamcatcher (2003) BDRip 720p

 
Автор Сообщение

sergej644 ®

Пол:

Стаж: 4 года 11 месяцев

Сообщений: 6044

Откуда: Soviet Union



Награды: Нет

Торрент-статистика

Создавать темы 10-Фев-2015 10:25

[Цитировать]

Страна: США, Австралия
Жанр: ужасы, фантастика, триллер, драма
Год выпуска: 2003
Продолжительность: 02:13:47
Перевод: Профессиональный (полное дублирование) + Оригинальный
Субтитры: русские (форсированные), русские, английские, английские (SDH).-Режиссер: Лоуренс Кэздан / Lawrence Kasdan-В ролях: Морган Фриман (Col. Abraham Curtis), Томас Джейн (Henry), Джейсон Ли (Beaver), Дэмиэн Льюис (Jonesy), Тимоти Олифант (Pete), Том Сайзмор (Owen), Донни Уолберг (Duddits), Майки Хоулкамп (Young Henry), Рис Томпсон (Young Beaver), Джакомо Бессато (Young Jonesy), Джоэль Палмер (Young Pete), Эндрю Робб (Young Duddits)-Описание: Джонси, Генри, Пит и Бивер. Двадцать лет назад они были просто мальчишками, проживающими в одном небольшом городке штата Мэн, - детьми, нашедшими в себе достаточно мужества, чтобы героически ответить на детскую жестокость. Награда за спасение странноватого мальчика по имени Даддитс совершенно неожиданно пришла к ним в виде сверхъестественных сил, связавших всех пятерых крепчайшими узами братства.Но когда на ежегодной охоте друзья собираются вместе в лесной хижине, то вместо ожидаемой теплой веселой атмосферы над ними начинает сгущаться абсолютное зло, приносящее гибель. Сначала к ним попадает незнакомец - затерявшийся в лесу охотник, которому и невдомек, что его организм поражен смертельной заразой. А вслед за ним возникает неистовствующий снежный буран, в эпицентре которого движется нечто еще более зловещее... Впереди - крупнейшее противостояние ужасу, не имеющему аналогов.-
MPAA: R - Лицам до 17 лет обязательно присутствие взрослого-Семпл-Качество: BDRip
Контейнер: MKV
Видео: AVC, 1280x534 (2.40:1), 4037 kbps, 23,976 fps, 0,246 bpp
Аудио №1: русский / AC3 / 2.0 / 48 kHz / 192 kbps
Аудио №2: английский / AC3 / 5.1 / 48 kHz / 448 kbps
Навигация по главам: есть-

Media Info

Format : Matroska
Format version : Version 2
File size : 4.37 GiB
Duration : 2h 13mn
Overall bit rate : 4 679 Kbps
Movie name : = Ловец снов / Dreamcatcher BDRip 720p by SC Kosmos =
Encoded date : UTC 2014-10-04 15:59:30
Writing application : mkvmerge v3.3.0 ('Language') gebaut am Mar 24 2010 14:59:24
Writing library : libebml v0.8.0 + libmatroska v0.9.0
Video
ID : 1
Format : AVC
Format/Info : Advanced Video Codec
Format profile : High@L4.1
Format settings, CABAC : Yes
Format settings, ReFrames : 12 frames
Codec ID : V_MPEG4/ISO/AVC
Duration : 2h 13mn
Bit rate : 4 037 Kbps
Width : 1 280 pixels
Height : 534 pixels
Display aspect ratio : 2.40:1
Frame rate : 23.976 fps
Color space : YUV
Chroma subsampling : 4:2:0
Bit depth : 8 bits
Scan type : Progressive
Bits/(Pixel*Frame) : 0.246
Stream size : 3.69 GiB (84%)
Title : Ловец снов / Dreamcatcher BDRip 720p by SC Kosmos
Writing library : x264 core 142 r2479 dd79a61
Encoding settings : cabac=1 / ref=12 / deblock=1:-3:-3 / analyse=0x3:0x113 / me=umh / subme=11 / psy=1 / psy_rd=1.00:0.00 / mixed_ref=1 / me_range=32 / chroma_me=1 / trellis=2 / 8x8dct=1 / cqm=0 / deadzone=21,11 / fast_pskip=0 / chroma_qp_offset=-2 / threads=12 / lookahead_threads=1 / sliced_threads=0 / nr=0 / decimate=1 / interlaced=0 / bluray_compat=0 / constrained_intra=0 / bframes=14 / b_pyramid=2 / b_adapt=1 / b_bias=0 / direct=3 / weightb=1 / open_gop=0 / weightp=2 / keyint=240 / keyint_min=23 / scenecut=40 / intra_refresh=0 / rc_lookahead=40 / rc=2pass / mbtree=0 / bitrate=4037 / ratetol=1.0 / qcomp=0.60 / qpmin=0 / qpmax=69 / qpstep=4 / cplxblur=20.0 / qblur=0.5 / vbv_maxrate=50000 / vbv_bufsize=50000 / nal_hrd=none / filler=0 / ip_ratio=1.40 / pb_ratio=1.30 / aq=1:1.00 / zones=184860,192433,b=0.25
Language : English
Default : No
Forced : No
Audio #1
ID : 2
Format : AC-3
Format/Info : Audio Coding 3
Format profile : Dolby Digital
Mode extension : CM (complete main)
Codec ID : A_AC3
Duration : 2h 13mn
Bit rate mode : Constant
Bit rate : 192 Kbps
Channel(s) : 2 channels
Channel positions : Front: L R
Sampling rate : 48.0 KHz
Bit depth : 16 bits
Compression mode : Lossy
Stream size : 184 MiB (4%)
Title : Дубляж
Language : Russian
Default : Yes
Forced : No
Audio #2
ID : 3
Format : AC-3
Format/Info : Audio Coding 3
Mode extension : CM (complete main)
Codec ID : A_AC3
Duration : 2h 13mn
Bit rate mode : Constant
Bit rate : 448 Kbps
Channel(s) : 6 channels
Channel positions : Front: L C R, Side: L R, LFE
Sampling rate : 48.0 KHz
Bit depth : 16 bits
Compression mode : Lossy
Stream size : 429 MiB (10%)
Language : English
Default : No
Forced : No
Text #1
ID : 4
Format : UTF-8
Codec ID : S_TEXT/UTF8
Codec ID/Info : UTF-8 Plain Text
Title : форсированные
Language : Russian
Default : Yes
Forced : No
Text #2
ID : 5
Format : UTF-8
Codec ID : S_TEXT/UTF8
Codec ID/Info : UTF-8 Plain Text
Language : Russian
Default : No
Forced : No
Text #3
ID : 6
Format : UTF-8
Codec ID : S_TEXT/UTF8
Codec ID/Info : UTF-8 Plain Text
Language : English
Default : No
Forced : No
Text #4
ID : 7
Format : UTF-8
Codec ID : S_TEXT/UTF8
Codec ID/Info : UTF-8 Plain Text
Title : SDH
Language : English
Default : No
Forced : No
Menu
00:00:00.000 : en:00:00:00.000
00:06:18.044 : en:00:06:18.044
00:13:31.436 : en:00:13:31.436
00:20:32.982 : en:00:20:32.982
00:30:24.656 : en:00:30:24.656
00:36:30.730 : en:00:36:30.730
00:46:05.513 : en:00:46:05.513
00:52:31.565 : en:00:52:31.565
00:59:46.249 : en:00:59:46.249
01:05:41.479 : en:01:05:41.479
01:10:58.796 : en:01:10:58.796
01:21:54.368 : en:01:21:54.368
01:30:06.359 : en:01:30:06.359
01:35:03.197 : en:01:35:03.197
01:40:59.303 : en:01:40:59.303
01:47:01.040 : en:01:47:01.040
01:53:29.594 : en:01:53:29.594
01:59:50.850 : en:01:59:50.850
-

Скриншоты


[Профиль] [ЛС]
Показать сообщения:    

Текущее время: Сегодня 10:09

Часовой пояс: GMT



Вы не можете начинать темы
Вы не можете отвечать на сообщения
Вы не можете редактировать свои сообщения
Вы не можете удалять свои сообщения
Вы не можете голосовать в опросах
Вы не можете прикреплять файлы к сообщениям
Вы не можете скачивать файлы