Лобстер / The Lobster (2015) BDRemux 1080i | iTunes

 
Автор Сообщение

Russian Mafia ®

Пол:

Стаж: 1 год 8 месяцев

Сообщений: 4253



Награды: 10 (Подробнее)

За внесенный вклад в развитие сайта (Количество: 1) Top Releaser 4 (Количество: 1) Top Releaser 5 (Количество: 1)
Торрент-статистика

Создавать темы 12-Апр-2016 07:00

[Цитировать]

Информация о фильме
Название: Лобстер
Оригинальное название: The Lobster
Год выхода: 2015
Жанр: антиутопия, фантастика, драма, комедия
Режиссер: Йоргос Лантимос
В ролях: Колин Фаррелл, Рэйчел Вайс, Джессика Барден, Оливия Колман, Эшли Дженсен, Ариана Лабед, Аггелики Папоулья, Джон Си Райли, Леа Сейду, Майкл Смайли
О фильме:
История любви, которая разворачивается в ближайшем будущем, где одиноких людей арестовывают и отправляют в жуткий отель. Там они обязаны найти себе пару за 45 дней. Если им это не удается, то их превращают в животное и отпускают в лес.

Страна: Ирландия, Великобритания, Греция, Франция, Нидерланды, США
Студия: Canal+, Centre National du Cinéma et de L'image Animée (CNC), Ciné+
Продолжительность: 01:53:45
Перевод: Профессиональный многоголосый (закадровый) | iTunes
Файл
Кодек: MPEG-4
Качество: BDRemux 1080i
Видео: 1920x1080, 30.0 Mbit/s, 23.976 fps
Звук:
Аудио #1: 48.0 Khz, AC3, 5.1, 384 Kbps | Профессиональный многоголосый (закадровый), iTunes |
Аудио #2: 48.0 Khz, DTS-HD MA, 5.1, 3155 Kbps | Оригинал |
Субтитры: Английские
Релиз от:
Примечание: Без рекламы.

MI

Общее
Уникальный идентификатор : 174018758756296391457360073156913447381 (0x82EACB38ED46CC27863C6A5A82DEC1D5)
Полное имя : E:VideoThe.Lobster..2015.BDREMUX.1080i (S).mkv
Формат : Matroska
Версия формата : Version 4 / Version 2
Размер файла : 26,6 Гбайт
Продолжительность : 1 ч. 53 м.
Режим общего битрейта : Переменный
Общий поток : 33,5 Мбит/сек
Название фильма : The.Lobster..2015.BDREMUX.1080i (S)
Дата кодирования : UTC 2016-04-11 00:50:45
Программа кодирования : mkvmerge v8.3.0 ('Over the Horizon') 64bit
Библиотека кодирования : libebml v1.3.1 + libmatroska v1.4.2
Видео
Идентификатор : 1
Формат : AVC
Формат/Информация : Advanced Video Codec
Профиль формата : High@L4.1
Параметр CABAC формата : Да
Параметр ReFrames формата : 4 кадра
Идентификатор кодека : V_MPEG4/ISO/AVC
Продолжительность : 1 ч. 53 м.
Вид битрейта : Переменный
Битрейт : 30,0 Мбит/сек
Максимальный битрейт : 34,0 Мбит/сек
Ширина : 1920 пикселей
Высота : 1080 пикселей
Соотношение сторон : 16:9
Режим частоты кадров : Постоянный
Частота кадров : 25,000 кадров/сек
Стандарт вещания : PAL
Цветовое пространство : YUV
Субдискретизация насыщенности : 4:2:0
Битовая глубина : 8 бит
Тип развёртки : MBAFF
Метод сохранения типа развёртки : Чередующиеся поля
Порядок развёртки : Верхнее поле первое
Бит/(Пиксели*Кадры) : 0.578
Размер потока : 23,8 Гбайт (89%)
Язык : English
Default : Нет
Forced : Нет
Цветовой диапазон : Limited
Основные цвета : BT.709
Характеристики трансфера : BT.709
Коэффициенты матрицы : BT.709
Аудио #1
Идентификатор : 2
Формат : AC-3
Формат/Информация : Audio Coding 3
Расширение режима : CM (complete main)
Параметр Endianness формата : Big
Идентификатор кодека : A_AC3
Продолжительность : 1 ч. 53 м.
Вид битрейта : Постоянный
Битрейт : 384 Кбит/сек
Каналы : 6 каналов
Расположение каналов : Front: L C R, Side: L R, LFE
Частота : 48,0 КГц
Частота кадров : 31,250 кадров/сек (1536 spf)
Метод сжатия : С потерями
Задержка видео : 12 мс.
Размер потока : 312 Мбайт (1%)
Заголовок : MVO [iTunes]
Язык : Russian
Default : Да
Forced : Нет
Аудио #2
Идентификатор : 3
Формат : DTS
Формат/Информация : Digital Theater Systems
Профиль формата : MA / Core
Режим : 16
Параметр Endianness формата : Big
Идентификатор кодека : A_DTS
Продолжительность : 1 ч. 53 м.
Вид битрейта : Переменный / Постоянный
Битрейт : 3155 Кбит/сек / 768 Кбит/сек
Каналы : 6 каналов
Расположение каналов : Front: L C R, Side: L R, LFE
Частота : 48,0 КГц
Частота кадров : 93,750 кадра/сек (512 spf)
Битовая глубина : 24 бит
Метод сжатия : Без потерь / Lossy
Размер потока : 2,51 Гбайт (9%)
Язык : English
Default : Нет
Forced : Нет
Текст #1
Идентификатор : 4
Формат : UTF-8
Идентификатор кодека : S_TEXT/UTF8
Идентификатор кодека/Информация : UTF-8 Plain Text
Продолжительность : 1 ч. 48 м.
Битрейт : 53 бит/сек
Count of elements : 1175
Размер потока : 42,1 Кбайт (0%)
Язык : English
Default : Нет
Forced : Нет
Текст #2
Идентификатор : 5
Формат : UTF-8
Идентификатор кодека : S_TEXT/UTF8
Идентификатор кодека/Информация : UTF-8 Plain Text
Продолжительность : 1 ч. 51 м.
Битрейт : 54 бит/сек
Count of elements : 1266
Размер потока : 44,5 Кбайт (0%)
Заголовок : SDH
Язык : English
Default : Нет
Forced : Нет
Меню
00:00:00.000 : en:Chapter 00
00:15:39.240 : en:Chapter 01
00:29:15.640 : en:Chapter 02
00:43:33.240 : en:Chapter 03
01:05:41.080 : en:Chapter 04
01:15:13.400 : en:Chapter 05
01:31:09.040 : en:Chapter 06
01:42:53.120 : en:Chapter 07

Скриншоты

[Профиль] [ЛС]
Показать сообщения:    

Текущее время: Сегодня 06:07

Часовой пояс: GMT



Вы не можете начинать темы
Вы не можете отвечать на сообщения
Вы не можете редактировать свои сообщения
Вы не можете удалять свои сообщения
Вы не можете голосовать в опросах
Вы не можете прикреплять файлы к сообщениям
Вы не можете скачивать файлы