Лобстер / The Lobster (2015) BDRip 720p | iTunes

 
Автор Сообщение

достали все ®

Пол:

Стаж: 1 год 8 месяцев

Сообщений: 6581



Награды: 12 (Подробнее)

Top Releaser 2 (Количество: 1) Mega Seeder 5 (Количество: 1) Mega Releaser 3 (Количество: 1)
Торрент-статистика

Создавать темы 11-Апр-2016 13:33

[Цитировать]

Информация о фильме
Название: Лобстер
Оригинальное название: The Lobster
Страна: Ирландия, Великобритания, Греция, Франция, Нидерланды, США
Студия: Canal+, Centre National du Cinéma et de L'image Animée (CNC), Ciné+
Жанр: антиутопия, фантастика, драма, комедия
Год выпуска: 2015
Продолжительность: 01:53:45
Перевод: Профессиональный (многоголосый закадровый) iTunes
Cубтитры: Rus, Eng
Оригинальная аудиодорожка: английский
Режиссер: Йоргос Лантимос / Yorgos Lanthimos
В ролях: Колин Фаррелл, Рэйчел Вайс, Джессика Барден, Оливия Колман, Эшли Дженсен, Ариана Лабед, Аггелики Папоулья, Джон Си Райли, Леа Сейду, Майкл Смайли
Описание: История любви, которая разворачивается в ближайшем будущем, где одиноких людей арестовывают и отправляют в жуткий отель. Там они обязаны найти себе пару за 45 дней. Если им это не удается, то их превращают в животное и отпускают в лес.

Тип релиза: BDRip 720p
Контейнер: MKV
Видео: MPEG-4 AVC, 8013 Кбит/с, 1280x694, 25,000 fps
Аудио: Rus, AC3, 384 kb/s (6 ch), 48 kHz
Аудио 2: Eng, AC3, 640 kb/s (6 ch), 48 kHz
Формат субтитров: softsub (SRT)

MediaInfo

x264 [info]: frame I:941 Avg QP:15.04 size:142687
x264 [info]: frame P:28600 Avg QP:17.20 size: 68195
x264 [info]: frame B:141093 Avg QP:18.02 size: 34772
Format : Matroska
Format version : Version 4 / Version 2
File size : 7.33 GiB
Duration : 1h 53mn
Overall bit rate : 9 220 Kbps
Movie name : Лобстер. (Tonik)
Encoded date : UTC 2016-04-11 09:52:05
Writing application : mkvmerge v7.1.0 ('Good Love') 64bit built on Jul 27 2014 13:06:55
Writing library : libebml v1.3.0 + libmatroska v1.4.1
_STATISTICS_WRITING_APP : mkvmerge v7.1.0 ('Good Love') 64bit built on Jul 27 2014 13:06:55
_STATISTICS_WRITING_DATE_UTC : 2016-04-11 09:52:05
_STATISTICS_TAGS : BPS DURATION NUMBER_OF_FRAMES NUMBER_OF_BYTES
DURATION : 01:53:45.600000000
NUMBER_OF_FRAMES : 213300
NUMBER_OF_BYTES : 327628800
Video
ID : 1
Format : AVC
Format/Info : Advanced Video Codec
Format profile : High@L4.1
Format settings, CABAC : Yes
Format settings, ReFrames : 9 frames
Codec ID : V_MPEG4/ISO/AVC
Bit rate : 8 013 Kbps
Width : 1 280 pixels
Height : 694 pixels
Display aspect ratio : 1.85:1
Frame rate mode : Variable
Original frame rate : 25.000 fps
Color space : YUV
Chroma subsampling : 4:2:0
Bit depth : 8 bits
Scan type : Progressive
Writing library : x264 core 148 r2665+53 6629127 t_mod_Custom [8-bit@all X86_64]
Encoding settings : cabac=1 / ref=9 / deblock=1:-3:-3 / analyse=0x3:0x133 / me=umh / subme=11 / psy=1 / fade_compensate=0.00 / psy_rd=1.05:0.00 / mixed_ref=1 / me_range=48 / chroma_me=1 / trellis=2 / 8x8dct=1 / cqm=0 / deadzone=21,11 / fast_pskip=0 / chroma_qp_offset=-2 / threads=8 / lookahead_threads=2 / sliced_threads=0 / nr=0 / decimate=0 / interlaced=0 / bluray_compat=0 / constrained_intra=0 / fgo=0 / bframes=10 / b_pyramid=2 / b_adapt=2 / b_bias=0 / direct=3 / weightb=1 / open_gop=0 / weightp=2 / keyint=250 / keyint_min=25 / scenecut=40 / intra_refresh=0 / rc_lookahead=150 / rc=crf / mbtree=0 / crf=17.2000 / qcomp=0.70 / qpmin=0:0:0 / qpmax=69:69:69 / qpstep=4 / vbv_maxrate=50000 / vbv_bufsize=62500 / crf_max=0.0 / nal_hrd=none / filler=0 / ip_ratio=1.30 / pb_ratio=1.20 / aq=3:0.70 / aq-sensitivity=10.00 / aq-factor=1.00:1.00:1.00 / aq2=0 / aq3=0 / zones=10333,10723,crf=15.2/14175,14221,crf=15.2/24151,24701,crf=15.2/39062,39241,crf=15.2/41948,42154,crf=15.2/42505,42692,crf=15.2/43596,47002,crf=15.2/111371,111857,crf=15.2/112681,112972,crf=15.2/113249,113356,crf=15/117859,118069,crf=15.2/160103,162221,crf=15.2/163449,165085,crf=15.2
Language : English
Default : Yes
Forced : No
_STATISTICS_WRITING_APP : mkvmerge v7.1.0 ('Good Love') 64bit built on Jul 27 2014 13:06:55
_STATISTICS_WRITING_DATE_UTC : 2016-04-11 09:52:05
_STATISTICS_TAGS : BPS DURATION NUMBER_OF_FRAMES NUMBER_OF_BYTES
DURATION : 01:53:45.360000000
NUMBER_OF_FRAMES : 170634
NUMBER_OF_BYTES : 6990665039
Audio #1
ID : 2
Format : AC-3
Format/Info : Audio Coding 3
Mode extension : CM (complete main)
Format settings, Endianness : Big
Codec ID : A_AC3
Duration : 1h 53mn
Bit rate mode : Constant
Bit rate : 384 Kbps
Channel(s) : 6 channels
Channel positions : Front: L C R, Side: L R, LFE
Sampling rate : 48.0 KHz
Bit depth : 16 bits
Compression mode : Lossy
Stream size : 312 MiB (4%)
Language : Russian
Default : Yes
Forced : No
Audio #2
ID : 3
Format : AC-3
Format/Info : Audio Coding 3
Mode extension : CM (complete main)
Format settings, Endianness : Big
Codec ID : A_AC3
Duration : 1h 53mn
Bit rate mode : Constant
Bit rate : 640 Kbps
Channel(s) : 6 channels
Channel positions : Front: L C R, Side: L R, LFE
Sampling rate : 48.0 KHz
Bit depth : 16 bits
Compression mode : Lossy
Stream size : 521 MiB (7%)
Language : English
Default : No
Forced : No
Text #1
ID : 4
Format : UTF-8
Codec ID : S_TEXT/UTF8
Codec ID/Info : UTF-8 Plain Text
Language : Russian
Default : No
Forced : No
Text #2
ID : 5
Format : UTF-8
Codec ID : S_TEXT/UTF8
Codec ID/Info : UTF-8 Plain Text
Language : English
Default : No
Forced : No
Text #3
ID : 6
Format : UTF-8
Codec ID : S_TEXT/UTF8
Codec ID/Info : UTF-8 Plain Text
Title : SDH
Language : English
Default : No
Forced : No
Menu
00:00:00.000 : en:Chapter 1
00:15:40.840 : en:Chapter 2
00:29:17.520 : en:Chapter 3
00:43:34.760 : en:Chapter 4
01:05:42.920 : en:Chapter 5
01:15:14.520 : en:Chapter 6
01:31:10.200 : en:Chapter 7
01:42:54.640 : en:Chapter 8

Скриншоты

[Профиль] [ЛС]
Показать сообщения:    

Текущее время: Сегодня 14:29

Часовой пояс: GMT



Вы не можете начинать темы
Вы не можете отвечать на сообщения
Вы не можете редактировать свои сообщения
Вы не можете удалять свои сообщения
Вы не можете голосовать в опросах
Вы не можете прикреплять файлы к сообщениям
Вы не можете скачивать файлы